Ссылка на приватное зеркало нашего сайта всего за 1$. Внимание количество ограничено!!!

2 сезон

iTunes

1 сезон

1

2 сезон

2 сезон

iTunes

1 сезон

RePack

30

Новинка

ВАЖНО

ИГРА 18+

pack

RePack

MK11
pack

Забери бонус

RePack

jed

!!Акция!!

Alien_Rage

RePack

fifa19

RePack

Assassins Creed: Odyssey

RePack

NEED FOR SPEED™ PAYBACK

4 сезон

9 сезон

Бесстыжие 9 сезон

Все сериалы

все сериалы на PB.wtf

RePack

FAR CRY 5
  

Ниндзя 2 / Ninja: Shadow of a Tear (Айзек Флорентайн) [2013 г., боевик, триллер, криминал, BDRemux 1080, DVO] pb.wtf

Ниндзя 2 через торрент pb.wtf

Размер: 17.4 GB | Добавлен: 6 лет 10 мес. назад | Торрент скачан:193 раза
Скачать  

04-01-2014 20:14 Ниндзя 2 Скачать торрент  

Ниндзя 2 / Ninja: Shadow of a Tear

Год выпуска: 2013
Страна: Таиланд, США
Жанр: боевик, триллер, криминал
Продолжительность: 01:34:43
Перевод: Профессиональный двухголосый |Студия "Paradox"|
Субтитры: English

Режиссер: Айзек Флорентайн
Продюссер: Боаз Дэвидсон, Фрэнк ДеМартини, Том Уоллер
Сценарий: Дэвид Н. Уайт, Майкл Херст, Боаз Дэвидсон
Премьера в мире: 20 сентября 2013

IMDB 6.30 (1331)


В ролях: Скотт Эдкинс, Витхая Пансрингарм, Кейн Косуги, Тим Ман, Чарли Рюдпоканон, Рон Смуренбург, Мика Хиджии, Сюн Сугата, Эрика Нагаминэ, Патрик Тэнг

Описание: Кейси Боумен, наконец, начал оседлую жизнь. Он в счастливом браке с Намико (которая беременна первенцем), живёт в Японии и преподаёт в додзё Кога. Однажды на Кейси, отправившегося за подарком для жены, нападает пара отморозков. Он не придаёт этому значения, считая всё обычным грабежом. Но когда той же ночью жестоко убивают Намико, мир Кейси рушится на части. Поражённый горем и пылающий жаждой мести, Кейси выслеживает двух бандитов, пытавшихся его ограбить, но те не могут предоставить ему ключи к разгадке убийства его жены. Поэтому Кейси отправляется в Таиланд, в додзё близкого друга. Горе и гнев берут над ним верх, и он «срывается» во время спарринга с учениками. Когда одного из учеников убивают так же, как и Намико, Кейси, наконец, находит улики, которые ему нужны для того, чтобы выследить убийцу своей жены и разгадать тайну, хранящуюся в глубине бирманских джунглей.

Качество: BDRemux 1080
Формат: BDAV
Видео кодек: AVC
Аудио кодек: DTS / TrueHD
Видео: MPEG-4 AVC Video ~19829 kbps, 1 920 х 1080p / 23,976 fps / 16:9 / High Profile 4.1 / 0.464
Аудио#1: Russian DTS 5.1 48 kHz 1509 kbps 16-bit - закадровый (двухголосый, студия "Paradox")
Аудио#2: English TrueHD 5.1 48 kHz 1799 kbps 16-bit (AC3 Core: 5.1 / 48 kHz / 640 kbps / 16-bit).
General
ID : 1 (0x1)
Complete name : /etc/seedbox/home/eruslannr/data/Ninja BDRemux AVC - HDTracker/BDMV/STREAM/00000.m2ts
Format : BDAV
Format/Info : Blu-ray Video
File size : 17.4 GiB
Duration : 1h 34mn
Overall bit rate mode : Variable
Overall bit rate : 26.3 Mbps
Maximum Overall bit rate : 35.5 Mbps

Video
ID : 4113 (0x1011)
Menu ID : 1 (0x1)
Format : AVC
Format/Info : Advanced Video Codec
Format profile : High@L4.1
Format settings, CABAC : Yes
Format settings, ReFrames : 2 frames
Codec ID : 27
Duration : 1h 34mn
Bit rate mode : Variable
Bit rate : 23.1 Mbps
Width : 1 920 pixels
Height : 1 080 pixels
Display aspect ratio : 16:9
Frame rate : 23.976 fps
Color space : YUV
Chroma subsampling : 4:2:0
Bit depth : 8 bits
Scan type : Progressive
Bits/(Pixel*Frame) : 0.464
Stream size : 15.3 GiB (88%)

Audio #1
ID : 4352 (0x1100)
Menu ID : 1 (0x1)
Format : DTS
Format/Info : Digital Theater Systems
Mode : 16
Format settings, Endianness : Big
Codec ID : 130
Duration : 1h 34mn
Bit rate mode : Constant
Bit rate : 1 509 Kbps
Channel count : 6 channels
Channel positions : Front: L C R, Side: L R, LFE
Sampling rate : 48.0 KHz
Bit depth : 16 bits
Compression mode : Lossy
Stream size : 1 022 MiB (6%)

Audio #2
ID : 4353 (0x1101)
Menu ID : 1 (0x1)
Format : TrueHD / AC-3
Mode extension : CM (complete main)
Format settings, Endianness : Big
Muxing mode : Stream extension
Codec ID : 131
Duration : 1h 34mn
Bit rate mode : Variable / Constant
Bit rate : 640 Kbps
Maximum bit rate : 2 943 Kbps
Channel count : 6 channels
Channel positions : Front: L C R, Side: L R, LFE
Sampling rate : 48.0 KHz
Bit depth : 16 bits
Stream size : 434 MiB (2%)

Text
ID : 4608 (0x1200)
Menu ID : 1 (0x1)
Format : PGS
Codec ID : 144
Delay relative to video : 12s 971ms
pb.wtf



Скачать Ниндзя 2 через торрент http://i1.imageban.ru/out/2014/01/04/7550d44dbe2ff43c3dc0209c460811dd.png Скачать фильм Ниндзя 2 через торрент бесплантно в хорошем качестве Описание: Кейси Боумен, наконец, начал оседлую жизнь. Он в счастливом браке с Намико (которая беременна первенцем), живёт в Японии и ... 10 10 16
Info! Золотая раздача, скачанное не засчитывается.
Торрент: Зарегистрирован [2014-01-04 20:14] · скачан: 193 раз
Статус: √ проверено
Размер: 17.4 GB
Как cкачать? Как скачать Ниндзя 2 через торрент | qTorrent

% Раздел Тема Автор DL S | L
Фильмы [HD 720p, 1080p] (Хороший звук DUB, MVO) [ 7.05 GB ] Ниндзя 2 / Ninja: Shadow of a Tear [2013 BDRip 1080p] DVO msltel Скачать
2 | 0
Фильмы 2013 (Звук TS, Cam, VO, DVO) [ 2.05 GB ] Ниндзя 2 / Ninja: Shadow of a Tear [ 2013 Таиланд BDRip ] DVO- [Студия "Paradox"] Ворон Скачать
1 | 0
Фильмы 2013 [DVDrip, WEB-DLRip, HDrip] [ 2.18 GB ] Ниндзя 2 / Ninja: Shadow of a Tear [2013 BDRip-AVC] DVO + Original + Sub potroks Скачать
1 | 0
Фильмы 2013 (Звук TS, Cam, VO, DVO) [ 1.37 GB ] Ниндзя 2 / Ninja: Shadow of a Tear [2013 WEB-DLRip Любительский Двухголосый 'Paradox'] DEVI Скачать
1 | 0

28-11-2019 20:33  

Отключить всю рекламу на сайте

04-01-2014 20:21 Ниндзя 2 Скачать торрент  

Дубляж бы...)pb.wtf



04-01-2014 20:51 Ниндзя 2 Скачать торрент  

советую глянуть, кто драчки любитpb.wtf



04-01-2014 21:55 Ниндзя 2 Скачать торрент  

лучше чем первая часть !pb.wtf



04-01-2014 22:14 Ниндзя 2 Скачать торрент  

Первая часть это - "ниндзя-убийца?"
P.S Семпл бы еще.pb.wtf



04-01-2014 22:36 Ниндзя 2 Скачать торрент  

фото не открываются. поправьте plspb.wtf



05-01-2014 01:39 Ниндзя 2 Скачать торрент  

parfar писал(а):

советую глянуть, кто драчки любит

Дааа! Тем более если снимается актер из "Оспорению не подлежит" Обожаю его!!!pb.wtf



05-01-2014 06:30 Ниндзя 2 Скачать торрент  

mrAmerica писал(а):

фото не открываются. поправьте pls

pb.wtf



05-01-2014 06:37 Ниндзя 2 Скачать торрент  

Размер: 17.4 GB?pb.wtf



05-01-2014 07:05 Ниндзя 2 Скачать торрент  

Forbius писал(а):

Дубляж бы...)

Дубляж вообще стоит ждать, он будет в природе? pb.wtf



    Дорогой пользователь! Огромная просьба, поблагодарите релизера, оцените раздачу и оставьте свои комментарий, если Вы скачали Ниндзя 2 через торрент бесплатно! Внесите свою лепту в развитие PiratBit!
    Комментировать посты могут только пользователи прошедшие не сложную регистрацию
    Показать сообщения:    

    Ниндзя 2 через торрент
    Скачать бесплатно Ниндзя 2
    Ниндзя 2 скачать торрент
    Ниндзя 2 смотреть онлайн
    Cкачать фильм Ниндзя 2 бесплатно
    Ниндзя 2 скачать торрент в хорошем качестве
    Ниндзя 2 смотреть онлайн бесплатно в хорошем качестве


    Вы не можете начинать темы
    Вы не можете отвечать на сообщения
    Вы не можете редактировать свои сообщения
    Вы не можете удалять свои сообщения
    Вы не можете голосовать в опросах
    Вы не можете прикреплять файлы к сообщениям
    Вы можете скачивать файлы