новый адрес
Ссылка на приватное зеркало всего за 1$. Внимание количество ограничено!!!

iTunes

1+1

iTunes

мы

iTunes

1

iTunes

Чернобыль

iTunes

Ральф против интернета

Лицензия

ПШазам

Лицензия

Оно 2

Лицензия

30
pack

Вам бонус

ВАЖНО

!!Акция!!

Alien_RageХит недели

RePack

Resident Evil 21

ИГРА 18+

pack

RePack

jed

!!Акция!!

Alien_Rage

RePack

fifa19

RePack

Assassins Creed: Odyssey

RePack

NEED FOR SPEED™ PAYBACK

3 сезон

9 сезон

Бесстыжие 9 сезон

Все сериалы

все сериалы на PB.wtf

RePack

FAR CRY 5
Ребята, катастрофически не хватает 1900р. для оплаты серверов за Октябрь (всвязи с блокировками трафик упал в 3 раза), 1-2р., выручайте.
  

Гольциус и Пеликанья компания / Goltzius and the Pelican Company (Питер Гринуэй / Peter Greenaway) [ 2012 , Великобритания, Нидерланды, Франция, Хорватия , биография, история , DVDRip ] MVO - Лицензия pb.wtf

Гольциус и Пеликанья компания через торрент pb.wtf

Размер: 1.46 GB | Добавлен: 5 лет 11 мес. назад | Торрент скачан:1886 раз
Скачать  

04-01-2014 20:24 Гольциус и Пеликанья компания Скачать торрент  

Гольциус и Пеликанья компания / Goltzius and the Pelican Company


  • Год выпуска:2012
  • Страна:Великобритания, Нидерланды, Франция, Хорватия
  • Жанр:биография, история

  • Продолжительность: 02:03:01
  • Перевод:Профессиональный (многоголосный) [лицензия]

  • Субтитры: Нет
    • Режиссер:Питер Гринуэй / Peter Greenaway
    • Сценарий: Питер Гринуэй / Peter Greenaway
    • Продюсер: Кеес Касандер / Kees Kasander, Майк Дауни / Mike Downey, Комптон Росс / Compton Ross, Сэм Тейлор / Sam Taylor, Джулия Тон / Julia Ton

  • В ролях:Ф. Мюррэй Абрахам (The Margrave), Винсент Риотта (Ricardo del Monte), Халина Рейн (Portia), Ларс Эйдингер (Quadfrey), Флавио Паренти (Eduard), Анне Луизе Хассинг (Susannah), Джулио Мария Беррути (Thomas Boethius), Франческо Де Вито (Rabbi Moab), Кейт Моран (Adaela), Пиппо Дельбонно (Samuel van Gouda), Рэмси Наср (Hendrick Goltzius), Майке Нёвилль (Isadora)
    • Описание:
      Зимой 1590 года в Кольмаре голландский типограф и гравёр Хендрик Гольциус обращается к маркизу Эльзасскому с просьбой о выделении средств на создание типографии, которая будет издавать иллюстрированные книги. Гольциус считает, что первые две книги, которые выйдут из-под печатного станка, следует преподнести Маркизу и его свите. Этими книгами должны стать иллюстрированное издание Ветхого Завета, содержащее шесть историй с эротическим содержанием, и иллюстрированное издание Метаморфоз Овидия, содержащее историю измен Юпитера.
      Чтобы ещё сильнее прельстить Маркиза, Гольциус и его типографские работники готовятся поставить перед свитой Маркиза серию спектаклей по этим эротическим рассказам. Маркиз, человек, известный широтой взглядов, гордящийся своей религиозной и культурной терпимостью, владелец большой библиотеки, с просвещённым интересом к книгам и новым технологиям печати, поддаётся искушению Гольциуса. В присутствии свидетелей Маркиз заявляет, что возместит производственные затраты Гольциуса и компании, при условии, что те будут держать его в состоянии распалённом и взволнованном.
      Гольциус и его Пеликанья компания печатных мастеров с их жёнами и любовницами из театрального мира приступают к работе...

    Премьера (РФ):12 сентября 2013 / Мировая премьера:30 сентября 2012

    • Качество:DVDRip
    • Формат:AVI
    • Видео кодек: XviD
    • Аудио кодек:AC3
    • Видео: XviD, 720x400 (16:9), 1307 kbps, 25 fps, 0,182 bpp
    • Аудио: AC3 / 5.1 / 48 kHz / 384 kbps / 16 bit


    Код:

    General
    Complete name                            : D:ТорентыGoljciys.i.Pelikanjya.kompaniya.2012.DVDRip.1.46Gb.avi
    Format                                   : AVI
    Format/Info                              : Audio Video Interleave
    File size                                : 1.46 GiB
    Duration                                 : 2h 3mn
    Overall bit rate                         : 1 701 Kbps
    Writing application                      : VirtualDubMod 1.5.10.3 | www.virtualdub-fr.org || (build 2550/release)
    Writing library                          : VirtualDubMod build 2550/release

    Video
    ID                                       : 0
    Format                                   : MPEG-4 Visual
    Format profile                           : Advanced Simple@L5
    Format settings, BVOP                    : 2
    Format settings, QPel                    : No
    Format settings, GMC                     : No warppoints
    Format settings, Matrix                  : Default (MPEG)
    Codec ID                                 : XVID
    Codec ID/Hint                            : XviD
    Duration                                 : 2h 3mn
    Bit rate                                 : 1 308 Kbps
    Width                                    : 720 pixels
    Height                                   : 400 pixels
    Display aspect ratio                     : 16:9
    Frame rate                               : 25.000 fps
    Color space                              : YUV
    Chroma subsampling                       : 4:2:0
    Bit depth                                : 8 bits
    Scan type                                : Progressive
    Compression mode                         : Lossy
    Bits/(Pixel*Frame)                       : 0.182
    Stream size                              : 1.12 GiB (77%)
    Writing library                          : XviD 1.2.1 (UTC 2008-12-04)

    Audio
    ID                                       : 1
    Format                                   : AC-3
    Format/Info                              : Audio Coding 3
    Mode extension                           : CM (complete main)
    Codec ID                                 : 2000
    Duration                                 : 2h 3mn
    Bit rate mode                            : Constant
    Bit rate                                 : 384 Kbps
    Channel(s)                               : 6 channels
    Channel positions                        : Front: L C R, Side: L R, LFE
    Sampling rate                            : 48.0 KHz
    Bit depth                                : 16 bits
    Compression mode                         : Lossy
    Stream size                              : 338 MiB (23%)
    Alignment                                : Split accross interleaves
    Interleave, duration                     : 40 ms (1.00 video frame)
    Interleave, preload duration             : 500 ms

    Скриншоты:

    Трейлеры к фильмам [2014]

    © Оформление by Vetalpb.wtf



  • Скачать Гольциус и Пеликанья компания через торрент http://i5.imageban.ru/out/2014/01/05/a2124bb041186de9fefa5ea17b97ba23.jpg Скачать фильм Гольциус и Пеликанья компания через торрент бесплантно в хорошем качестве Описание:Зимой 1590 года в Кольмаре голландский ограф и гравёр Хендрик Гольциус обращается к маркизу Эльзасскому с просьбой о выделении ... 8.6 10 41
    Info! Золотая раздача, скачанное не засчитывается.
    Торрент: Зарегистрирован [2014-01-04 20:24] · скачан: 1 886 раз
    Статус: √ проверено
    Размер: 1.46 GB
    Как cкачать? Как скачать Гольциус и Пеликанья компания через торрент | qTorrent

    Отключить всю рекламу на сайте

    05-01-2014 09:57 Гольциус и Пеликанья компания Скачать торрент  

    Спасибо ! Оценимpb.wtf



    05-01-2014 23:23 Гольциус и Пеликанья компания Скачать торрент  

    Блевотина, какой ещё поискать. То, что выдают за искусство. Сруший король, педерасия, мрачно и грязно. Изображен ад.Постоянно хулят творца. Для желающих измараться.pb.wtf



    06-01-2014 09:30 Гольциус и Пеликанья компания Скачать торрент  

    скачаем, посмотрим, спасибоpb.wtf



      Дорогой пользователь! Огромная просьба, поблагодарите релизера, оцените раздачу и оставьте свои комментарий, если Вы скачали Гольциус и Пеликанья компания через торрент бесплатно! Внесите свою лепту в развитие PiratBit!
      Комментировать посты могут только пользователи прошедшие не сложную регистрацию
      Показать сообщения:    

      Гольциус и Пеликанья компания через торрент
      Скачать бесплатно Гольциус и Пеликанья компания
      Гольциус и Пеликанья компания скачать торрент
      Гольциус и Пеликанья компания смотреть онлайн
      Cкачать фильм Гольциус и Пеликанья компания бесплатно
      Гольциус и Пеликанья компания скачать торрент в хорошем качестве
      Гольциус и Пеликанья компания смотреть онлайн бесплатно в хорошем качестве


      Вы не можете начинать темы
      Вы не можете отвечать на сообщения
      Вы не можете редактировать свои сообщения
      Вы не можете удалять свои сообщения
      Вы не можете голосовать в опросах
      Вы не можете прикреплять файлы к сообщениям
      Вы можете скачивать файлы