Ссылка на приватное зеркало всего за 1$. Внимание количество ограничено!!!

iTunes

iTunes

iTunes

1

iTunes

iTunes

iTunes

iTunes

iTunes

30
pack

$ от Little Big

ВАЖНО

!!Акция!!

Alien_RageХит недели

RePack

Resident Evil 21

ИГРА 18+

pack

RePack

jed

!!Акция!!

Alien_Rage

RePack

fifa19

RePack

Assassins Creed: Odyssey

RePack

NEED FOR SPEED™ PAYBACK

4 сезон

9 сезон

Бесстыжие 9 сезон

Все сериалы

все сериалы на PB.wtf

RePack

FAR CRY 5
  

Милашка / The Sweetest Thing (Роджер Камбл) [2002 г., мелодрама, комедия, HDTV 1080i, DUB + 2xMVO + Oroginal + SUB (2xRUS, ENG)] pb.wtf

Милашка через торрент pb.wtf

Размер: 6.4 GB | Добавлен: 6 лет 6 мес. назад | Торрент скачан:29 раз
Скачать  

04-01-2014 22:04 Милашка Скачать торрент  

Милашка / The Sweetest Thing
Год выпуска: 2002
Страна: США
Жанр: мелодрама, комедия
Продолжительность: 01:24:59
Перевод: Дубляж + Профессиональный многолосый закадровый

Режиссер: Роджер Камбл
Продюссер: Кэти Конрад, Стюарт М. Бессер, Дикси Дж. Кэпп
Сценарий: Нэнси Пиментал

Бюджет: $43 000 000
Премьера в мире: 12 апреля 2002



В ролях: Кэмерон Диаз, Кристина Эпплгейт, Сэльма Блэр, Томас Джейн, Фрэнк Грилло, Джейсон Бейтман, Эдди МакКлинток, Лиллиэн Адамс, Джонни Месснер, Сибил Темчен,

Описание: Сексуальная блондинка, тусовщица и завсегдатай ночных клубов Кристина Уолтерс в один прекрасный день решает, что ей не мешало бы просветиться, т. е. научиться хорошим манерам и познать науку цивилизованного обольщения мужчин.И кандидатура нашлась: она повстречала «Мистера Идеал» который разбил ее сердце и... тут же исчез. Но агрессивная красотка не растерялась: она берет в охапку свою лучшую подругу и отправляется на поиски парня своей мечты.Во время этого дорожного путешествия Кристина многое узнает о себе и о своей жизни.

Качество: HDTVRip 1080i
Формат: BDAV
Видео кодек: AVC
Аудио кодек: AC3
Видео: AVC, 1920x1080 (16:9), 25.000 fps, 9 112 Kbps (0.176 bit/pixel)
Аудио#1: AC-3, 48.0 KHz, 6 ch, 384 Kbps, CBR | Дубляж
Аудио#2: AC-3, 48.0 KHz, 2 ch, 192 Kbps, CBR | Многоголосый закадровый (НТВ+)
Аудио#3: AC-3, 48.0 KHz, 2 ch, 192 Kbps, CBR | Многоголосый закадровый
Аудио#4: AC-3, 48.0 KHz, 6 ch, 448 Kbps, CBR | Английский
Субтитры: Русские, русские, английские

скриншот   скриншот   скриншот   скриншот  
Общее
Идентификатор : 1 (0x1)
Полное имя : F:PC ShareThe.Sweetest.Thing.2002.DVB.HDTV.1080i.HOLLYWOODHD.[satnews]2002.The.Sweetest.Thing.DVB.HDTV.1080i.HOLLYWOODHD.[satnews]BDMVSTREAM0000.m2ts
Формат : BDAV
Формат/Информация : Blu-ray Video
Размер файла : 6,40 Гбайт
Продолжительность : 1 ч. 24 м.
Режим общего битрейта : Переменный
Общий поток : 10,8 Мбит/сек
Максимальный общий битрейт : 35,5 Мбит/сек

Видео
Идентификатор : 4113 (0x1011)
Идентификатор меню : 1 (0x1)
Формат : AVC
Формат/Информация : Advanced Video Codec
Профиль формата : High@L4.0
Параметр CABAC формата : Да
Параметр ReFrames формата : 4 кадра
Идентификатор кодека : 27
Продолжительность : 1 ч. 24 м.
Вид битрейта : Переменный
Битрейт : 9112 Кбит/сек
Максимальный битрейт : 40,0 Мбит/сек
Ширина : 1920 пикселей
Высота : 1080 пикселей
Соотношение сторон : 16:9
Частота кадров : 25,000 кадров/сек
Цветовое пространство : YUV
Субдискретизация насыщенности : 4:2:0
Битовая глубина : 8 бит
Тип развёртки : MBAFF
Порядок развёртки : Верхнее поле первое
Бит/(Пиксели*Кадры) : 0.176
Размер потока : 5,41 Гбайт (85%)
Основные цвета : BT.709
Характеристики трансфера : BT.709
Коэффициенты матрицы : BT.709

Аудио #1
Идентификатор : 4352 (0x1100)
Идентификатор меню : 1 (0x1)
Формат : AC-3
Формат/Информация : Audio Coding 3
Расширение режима : CM (complete main)
Параметр Endianness формата : Big
Идентификатор кодека : 129
Продолжительность : 1 ч. 24 м.
Вид битрейта : Постоянный
Битрейт : 384 Кбит/сек
Каналы : 6 каналов
Расположение каналов : Front: L C R, Side: L R, LFE
Частота : 48,0 КГц
Битовая глубина : 16 бит
Метод сжатия : С потерями
Размер потока : 233 Мбайт (4%)
Язык : Russian

Аудио #2
Идентификатор : 4353 (0x1101)
Идентификатор меню : 1 (0x1)
Формат : AC-3
Формат/Информация : Audio Coding 3
Расширение режима : CM (complete main)
Параметр Endianness формата : Big
Идентификатор кодека : 129
Продолжительность : 1 ч. 24 м.
Вид битрейта : Постоянный
Битрейт : 192 Кбит/сек
Каналы : 2 канала
Расположение каналов : Front: L R
Частота : 48,0 КГц
Битовая глубина : 16 бит
Метод сжатия : С потерями
Размер потока : 117 Мбайт (2%)
Язык : Russian

Аудио #3
Идентификатор : 4354 (0x1102)
Идентификатор меню : 1 (0x1)
Формат : AC-3
Формат/Информация : Audio Coding 3
Расширение режима : CM (complete main)
Параметр Endianness формата : Big
Идентификатор кодека : 129
Продолжительность : 1 ч. 24 м.
Вид битрейта : Постоянный
Битрейт : 192 Кбит/сек
Каналы : 2 канала
Расположение каналов : Front: L R
Частота : 48,0 КГц
Битовая глубина : 16 бит
Метод сжатия : С потерями
Размер потока : 117 Мбайт (2%)
Язык : Russian

Аудио #4
Идентификатор : 4355 (0x1103)
Идентификатор меню : 1 (0x1)
Формат : AC-3
Формат/Информация : Audio Coding 3
Расширение режима : CM (complete main)
Параметр Endianness формата : Big
Идентификатор кодека : 129
Продолжительность : 1 ч. 24 м.
Вид битрейта : Постоянный
Битрейт : 448 Кбит/сек
Каналы : 6 каналов
Расположение каналов : Front: L C R, Side: L R, LFE
Частота : 48,0 КГц
Битовая глубина : 16 бит
Метод сжатия : С потерями
Размер потока : 272 Мбайт (4%)
Язык : English

Текст #1
Идентификатор : 4608 (0x1200)
Идентификатор меню : 1 (0x1)
Формат : PGS
Идентификатор кодека : 144
Продолжительность : 1 ч. 24 м.
Задержка видео : 21 с.
Язык : Russian

Текст #2
Идентификатор : 4609 (0x1201)
Идентификатор меню : 1 (0x1)
Формат : PGS
Идентификатор кодека : 144
Продолжительность : 1 ч. 24 м.
Задержка видео : 25 с.
Язык : Russian

Текст #3
Идентификатор : 4610 (0x1202)
Идентификатор меню : 1 (0x1)
Формат : PGS
Идентификатор кодека : 144
Продолжительность : 1 ч. 24 м.
Задержка видео : 25 с.
Язык : English


Милашка скачать торрент


pb.wtf



Скачать Милашка через торрент http://pic.kartinco.top/images/6/g3q7w.jpg Скачать фильм Милашка через торрент бесплантно в хорошем качестве Описание: Сексуальная блондинка, тусовщица и завсегдатай ночных клубов Кристина Уолтерс в один прекрасный день решает, что ей не мешало бы ... 10 10 7
Info! Золотая раздача, скачанное не засчитывается.
Торрент: Зарегистрирован [2014-01-04 22:04] · скачан: 29 раз
Статус: √ проверено
Размер: 6.4 GB
Как cкачать? Как скачать Милашка через торрент | qTorrent

% Раздел Тема Автор DL S | L
Фильмы 2001-2005 [ 689 MB ] Милашка / The Sweetest Thing [2002 DVDRip] bryzgalin Скачать
1 | 0
Фильмы 2001-2005 [ 1.37 GB ] Милашка / The Sweetest Thing [2002 DVDRip ] DEVI Скачать
1 | 0
Фильмы 2001-2005 [ 1.37 GB ] Милашка / Sweetest Thing The [2002 ... DVDRip] sasha060 Скачать
1 | 0

28-11-2019 20:33  

Отключить всю рекламу на сайте

    Дорогой пользователь! Огромная просьба, поблагодарите релизера, оцените раздачу и оставьте свои комментарий, если Вы скачали Милашка через торрент бесплатно! Внесите свою лепту в развитие PiratBit!
    Комментировать посты могут только пользователи прошедшие не сложную регистрацию
    Показать сообщения:    

    Милашка через торрент
    Скачать бесплатно Милашка
    Милашка скачать торрент
    Милашка смотреть онлайн
    Cкачать фильм Милашка бесплатно
    Милашка скачать торрент в хорошем качестве
    Милашка смотреть онлайн бесплатно в хорошем качестве


    Вы не можете начинать темы
    Вы не можете отвечать на сообщения
    Вы не можете редактировать свои сообщения
    Вы не можете удалять свои сообщения
    Вы не можете голосовать в опросах
    Вы не можете прикреплять файлы к сообщениям
    Вы можете скачивать файлы