Ссылка на приватное зеркало всего за 1$. Внимание количество ограничено!!!

iTunes

iTunes

iTunes

1

iTunes

iTunes

iTunes

WEBRip

iTunes

30
pack

$ от Little Big

ВАЖНО

!!Акция!!

Alien_RageХит недели

RePack

Resident Evil 21

ИГРА 18+

pack

RePack

jed

!!Акция!!

Alien_Rage

RePack

fifa19

RePack

Assassins Creed: Odyssey

RePack

NEED FOR SPEED™ PAYBACK

4 сезон

9 сезон

Бесстыжие 9 сезон

Все сериалы

все сериалы на PB.wtf

RePack

FAR CRY 5
  

Неваляшка (Роман Качанов) [2007 г., Комедия, спорт, DVDRip] pb.wtf

Неваляшка через торрент pb.wtf

Размер: 1.46 GB | Добавлен: 6 лет 7 мес. назад | Торрент скачан:322 раза
Скачать  

05-01-2014 02:33 Неваляшка Скачать торрент  

Неваляшка

Год выпуска: 2007
Страна: Россия
Жанр: Комедия, спорт
Продолжительность: 01:30:45
Режиссер: Роман Качанов
Продюссер: Виктор Глухов
Сценарий: Роман Качанов, Григорий Константинопольский, Максим Курочкин, Ульяна Шилкина
Бюджет: $1 089 400
Премьера в мире: 26 апреля 2007

В ролях: Павел Деревянко (Неваляшка), Сергей Маковецкий (Семеныч), Алексей Панин (Леопольд), Артемий Троицкий, Иван Ургант, Евгений Пилипенко (друг Семеныча в ресторане), Линда Нигматулина (Линда), Диана Шпак, Елена Николаева (Таня, балерина, дочь бизнесмена), Олег Кассин (Однорукий), Николай Ковбас (конферансье на ринге), Алексей Гусев (конферансье на ринге),
Описание:
Неваляшка - молодой боксер, выступающий в легкой весовой категории. Отличаясь от своих соперников худобой, он, тем не менее, с легкостью укладывает их на ринг. Устав от «легких» побед, Неваляшка жаждет нокаутировать противника посерьезнее.
Из новостей он узнает об американце по прозвищу «Пила», и его подружке-красотке Кэтрин. Влюбившись в девушку, он решает покорить ее сердце, побив «Пилу». Готовясь к бою, он случайно знакомится с тренером Семенычем и юной балериной, в которую сразу же влюбляется. Но по случайности за океан уходит любовное письмо, написанное им Кэтрин.
Качество: DVDRip
Формат: AVI
Видео кодек: XviD
Аудио кодек: AC3
Видео: 704x384 (1.83:1), 25 fps, XviD build 72 ~1840 kbps avg, 0.27 bit/pixel
Аудио: 48 kHz, AC3 Dolby Digital, 3/2 (L,C,R,l,r) + LFE ch, ~448 kbps
D:ФильмыNevalyashka.2007.XviD.DVDRip.avi
General
Complete name : D:ФильмыNevalyashka.2007.XviD.DVDRip.avi
Format : AVI
Format/Info : Audio Video Interleave
File size : 1.46 GiB
Duration : 1h 30mn
Overall bit rate : 2 298 Kbps
Movie name : Неваляшка [2007]
Director : Юpист
Genre : Kомедия, спорт
Writing application : VirtualDubMod 1.5.10.3 | www.virtualdub-fr.org || (build 2550/release)
Writing library : VirtualDubMod build 2550/release
Copyright : RG "All films" [rutracker.org]
Video #0
ID : 0
Format : MPEG-4 Visual
Format profile : Advanced Simple@L5
Format settings, BVOP : 1
Format settings, QPel : No
Format settings, GMC : No warppoints
Format settings, Matrix : Custom
Codec ID : XVID
Codec ID/Hint : XviD
Duration : 1h 30mn
Bit rate : 1 841 Kbps
Width : 704 pixels
Height : 384 pixels
Display aspect ratio : 1.85:1
Frame rate : 25.000 fps
Color space : YUV
Chroma subsampling : 4:2:0
Bit depth : 8 bits
Scan type : Progressive
Compression mode : Lossy
Bits/(Pixel*Frame) : 0.272
Stream size : 1.17 GiB (80%)
Writing library : XviD 72
Audio #1
ID : 1
Format : AC-3
Format/Info : Audio Coding 3
Mode extension : CM (complete main)
Format settings, Endianness : Big
Codec ID : 2000
Duration : 1h 30mn
Bit rate mode : Constant
Bit rate : 448 Kbps
Channel(s) : 6 channels
Channel positions : Front: L C R, Side: L R, LFE
Sampling rate : 48.0 KHz
Bit depth : 16 bits
Compression mode : Lossy
Stream size : 291 MiB (19%)
Alignment : Split accross interleaves
Interleave, duration : 40 ms (1.00 video frame)
Interleave, preload duration : 500 ms

скриншот  скриншот  скриншот  скриншот  скриншот  скриншот  
pb.wtf



Скачать Неваляшка через торрент http://pic.kartinco.top/images/6/cvt75.jpg Скачать фильм Неваляшка через торрент бесплантно в хорошем качестве Описание: Неваляшка - молодой боксер, выступающий в легкой весовой категории. Отличаясь от своих соперников худобой, он, тем не менее, с ... 9.9 10 20
Info! Золотая раздача, скачанное не засчитывается.
Торрент: Зарегистрирован [2014-01-05 02:33] · скачан: 322 раз
Статус: √ проверено
Размер: 1.46 GB
Как cкачать? Как скачать Неваляшка через торрент | qTorrent

% Раздел Тема Автор DL S | L
Наши сериалы [ 4.35 GB ] Неваляшка / Сезон 1 / Серии 1-2 из 2 [2016 Россия WEB-DL 1080p] GEKADOL Скачать
1 | 0
Наши сериалы [ 2.74 GB ] Неваляшка / Сезон 1 / Серии 1-2 из 2 [2016 Россия WEB-DLRip] GEKADOL Скачать
1 | 0
Наши новые фильмы 2014 [ 1.36 GB ] Неваляшка 2 [2014 Россия SATRip] Ворон Скачать
1 | 0
Наши фильмы, до 2010 [ 1.46 GB ] Неваляшка [2007 DVDRip] владимир100 Скачать
1 | 0

28-11-2019 20:33  

Отключить всю рекламу на сайте

05-01-2014 05:26 Неваляшка Скачать торрент  

Веселое кино pb.wtf



    Дорогой пользователь! Огромная просьба, поблагодарите релизера, оцените раздачу и оставьте свои комментарий, если Вы скачали Неваляшка через торрент бесплатно! Внесите свою лепту в развитие PiratBit!
    Комментировать посты могут только пользователи прошедшие не сложную регистрацию
    Показать сообщения:    

    Неваляшка через торрент
    Скачать бесплатно Неваляшка
    Неваляшка скачать торрент
    Неваляшка смотреть онлайн
    Cкачать фильм Неваляшка бесплатно
    Неваляшка скачать торрент в хорошем качестве
    Неваляшка смотреть онлайн бесплатно в хорошем качестве


    Вы не можете начинать темы
    Вы не можете отвечать на сообщения
    Вы не можете редактировать свои сообщения
    Вы не можете удалять свои сообщения
    Вы не можете голосовать в опросах
    Вы не можете прикреплять файлы к сообщениям
    Вы можете скачивать файлы