Достать ножи: Стеклянная луковица

MVO

Добыча

Дубляж

Уэнсдэй

1 сезон

Тор

Дубляж

13 клиническая

1 сезон

Жестокая ночь

MVO

Одни из нас

1 сезон

Deluxe

pack

Рекомендуем

30

Пиратка

ВАЖНО

ВАЖНО

Ghostwire

Пиратка

jed

RePack

nioh2

RePack

RDR2

RePack

NEED FOR SPEED™ PAYBACK

RePack

скачать торрент

Кинопоиск HD

Острые козырьки 6 сезон

6 сезон

FAR CRY 6

RePack

скачать торрент

Лицензия

скачать торрент

MVO

1

1 сезон

скачать торрент

1 сезон

скачать торрент

Лицензия

  

Ниндзя 2 / Ninja: Shadow of a Tear (Айзек Флорентайн / Isaac Florentine) [ 2013 , Таиланд, США , боевик, триллер, криминал , BDRip ] DVO- [Студия "Paradox"]

Ниндзя 2 через торрент pb.wtf

Размер: 2.05 GB | Добавлен: 9 лет назад | Торрент скачан:277 раз
Смотреть онлайн | Скачать | Поддержите нас   

05-01-2014 11:58 Ниндзя 2 Скачать торрент  

Ниндзя 2 / Ninja: Shadow of a Tear


  • Год выпуска:2013
  • Страна:Таиланд, США
  • Жанр:боевик, триллер, криминал
  • Продолжительность: 01:34:43
  • Перевод:Любительский Двухголосый- [Студия "Paradox"]

  • Субтитры: Нет
    • Режиссер:Айзек Флорентайн / Isaac Florentine
    • Сценарий: Дэвид Н. Уайт / David N. White, Майкл Херст / Michael Hurst, Боаз Дэвидсон / Boaz Davidson
    • Продюсер: Боаз Дэвидсон / Boaz Davidson, Фрэнк ДеМартини / Frank DeMartini, Том Уоллер / Tom Waller, Дэнни Димборт / Danny Dimbort, Ави Лернер / Avi Lerner

  • В ролях:Скотт Эдкинс (Casey), Витхая Пансрингарм (General Sung), Кейн Косуги (Nakabara), Тим Ман (Myat), Чарли Рюдпоканон (Thug 1), Рон Смуренбург (Dojo Fighter), Мика Хиджии (Namiko), Сюн Сугата (Goro), Эрика Нагаминэ (Jewelry Store Worker), Патрик Тэнг (Thug 2), Мукеш Бхатт (Mike), Джавед Эль Берни (Lucas)
    • Описание:
      Кейси Боумен, наконец, начал оседлую жизнь. Он в счастливом браке с Намико (которая беременна первенцем), живёт в Японии и преподаёт в додзё Кога. Однажды на Кейси, отправившегося за подарком для жены, нападает пара отморозков. Он не придаёт этому значения, считая всё обычным грабежом. Но когда той же ночью жестоко убивают Намико, мир Кейси рушится на части. Поражённый горем и пылающий жаждой мести, Кейси выслеживает двух бандитов, пытавшихся его ограбить, но те не могут предоставить ему ключи к разгадке убийства его жены. Поэтому Кейси отправляется в Таиланд, в додзё близкого друга. Горе и гнев берут над ним верх, и он «срывается» во время спарринга с учениками. Когда одного из учеников убивают так же, как и Намико, Кейси, наконец, находит улики, которые ему нужны для того, чтобы выследить убийцу своей жены и разгадать тайну, хранящуюся в глубине бирманских джунглей.

    Мировая премьера:20 сентября 2013
    • Качество:BDRip
    • Формат:AVI
    • Видео кодек: XviD
    • Аудио кодек:AC3
    • Видео: XviD, 720x400 (16:9), 2183 kbps, 23,976 fps, 0,316 bpp
    • Аудио №1: AC3 / 5.1 / 48 kHz / 448 kbps / 16 bit-DVO
    • Аудио №2: AC3 / 5.1 / 48 kHz / 448 kbps / 16 bit-ENG


    Код:

    General
    Complete name                            : D:ТорентыNinja.2.2013.L2.BDRip-.avi
    Format                                   : AVI
    Format/Info                              : Audio Video Interleave
    Format profile                           : OpenDML
    File size                                : 2.05 GiB
    Duration                                 : 1h 34mn
    Overall bit rate                         : 3 098 Kbps
    Writing application                      : VirtualDubMod 1.5.10.3 (build 2550/release)
    Writing library                          : VirtualDubMod build 2550/release

    Video
    ID                                       : 0
    Format                                   : MPEG-4 Visual
    Format profile                           : Advanced [email protected]
    Format settings, BVOP                    : 1
    Format settings, QPel                    : No
    Format settings, GMC                     : No warppoints
    Format settings, Matrix                  : Default (MPEG)
    Codec ID                                 : XVID
    Codec ID/Hint                            : XviD
    Duration                                 : 1h 34mn
    Bit rate                                 : 2 184 Kbps
    Width                                    : 720 pixels
    Height                                   : 400 pixels
    Display aspect ratio                     : 16:9
    Frame rate                               : 23.976 fps
    Color space                              : YUV
    Chroma subsampling                       : 4:2:0
    Bit depth                                : 8 bits
    Scan type                                : Progressive
    Compression mode                         : Lossy
    Bits/(Pixel*Frame)                       : 0.316
    Stream size                              : 1.44 GiB (70%)
    Writing library                          : XviD 1.2.1 (UTC 2008-12-04)

    Audio #1
    ID                                       : 1
    Format                                   : AC-3
    Format/Info                              : Audio Coding 3
    Mode extension                           : CM (complete main)
    Codec ID                                 : 2000
    Duration                                 : 1h 34mn
    Bit rate mode                            : Constant
    Bit rate                                 : 448 Kbps
    Channel(s)                               : 6 channels
    Channel positions                        : Front: L C R, Side: L R, LFE
    Sampling rate                            : 48.0 KHz
    Bit depth                                : 16 bits
    Compression mode                         : Lossy
    Stream size                              : 304 MiB (14%)
    Alignment                                : Split accross interleaves
    Interleave, duration                     : 42 ms (1.00 video frame)
    Interleave, preload duration             : 500 ms

    Audio #2
    ID                                       : 2
    Format                                   : AC-3
    Format/Info                              : Audio Coding 3
    Mode extension                           : CM (complete main)
    Codec ID                                 : 2000
    Duration                                 : 1h 34mn
    Bit rate mode                            : Constant
    Bit rate                                 : 448 Kbps
    Channel(s)                               : 6 channels
    Channel positions                        : Front: L C R, Side: L R, LFE
    Sampling rate                            : 48.0 KHz
    Bit depth                                : 16 bits
    Compression mode                         : Lossy
    Stream size                              : 304 MiB (14%)
    Alignment                                : Split accross interleaves
    Interleave, duration                     : 42 ms (1.00 video frame)
    Interleave, preload duration             : 500 ms


    Скриншоты:

    Трейлеры к фильмам [2014]

    © Оформление by Vetal



  • Скачать Ниндзя 2 через торрент http://i2-imageban-ru.translate.goog/out/2014/01/05/279f0c0915337201c2e34743742d26ca.jpg Скачать, смотреть онлайн Ниндзя 2 бесплантно в хорошем качестве Описание:Кейси Боумен, наконец, начал оседлую жизнь. Он в счастливом браке с Намико (которая беременна первенцем), живёт в Японии и ... 10 10 13
    Info! Золотая раздача, скачанное не засчитывается.
    Торрент: Зарегистрирован [2014-01-05 11:59] · скачан: 277 раз
    Статус: √ проверено
    Размер: 2.05 GB
    Как cкачать? Как скачать Ниндзя 2 через торрент | UTorrent

    % Раздел Тема Автор DL S | L
    Фильмы 2013 [DVDrip, WEB-DLRip, HDrip] [ 2.18 GB ] Ниндзя 2 / Ninja: Shadow of a Tear | | BDRip-AVC potroks Скачать
    1 | 0



    Последний раз редактировалось: Ворон (2015-01-15 18:59), всего редактировалось 1 раз

    28-11-2019 20:33  


    Отключить вcю реклaмy на сайте, в т.ч. и в плеере онлайн просмотра!

    05-01-2014 12:45 Ниндзя 2 Скачать торрент  

    кино дерьмище из 80-х годов,УГ



    05-01-2014 13:14 Ниндзя 2 Скачать торрент  

    Когда-то, в начале 80-х папаша Кейна Косуги - Шоиши Косуги неплохо зажигал в одноименном фильме.



    05-01-2014 14:44 Ниндзя 2 Скачать торрент  

    Шлак! :cansored:



    01-06-2014 17:36 Ниндзя 2 Скачать торрент  

    лицуха когда выйдет



      Дорогой пользователь! Огромная просьба, поблагодарите релизера, оцените раздачу и оставьте свои комментарий, если Вы скачали Ниндзя 2 через торрент бесплатно!!
      Комментировать посты могут только пользователи прошедшие не сложную регистрацию
      Показать сообщения:    


      Ниндзя 2 через торрент
      Скачать бесплатно Ниндзя 2
      Ниндзя 2 скачать торрент
      Ниндзя 2 смотреть онлайн
      Cкачать фильм Ниндзя 2 бесплатно
      Ниндзя 2 скачать торрент в хорошем качестве
      Ниндзя 2 смотреть онлайн бесплатно в хорошем качестве
      Вы не можете начинать темы
      Вы не можете отвечать на сообщения
      Вы не можете редактировать свои сообщения
      Вы не можете удалять свои сообщения
      Вы не можете голосовать в опросах
      Вы не можете прикреплять файлы к сообщениям
      Вы можете скачивать файлы
      Ниндзя 2 / Ninja: Shadow of a Tear [ 2013 , Таиланд, США , боевик, триллер, криминал , BDRip ] DVO- [Студия "Paradox"] смотреть онлайн, скачать торрент picoco.icu