2 сезон

iTunes

MVO

1

2 сезон

iTunes

iTunes

1 сезон

RePack

30

Новинка

ВАЖНО

ИГРА 18+

pack

RePack

MK11
pack

Легкие деньги

RePack

jed

RePack

fifa19

RePack

RDR2

RePack

NEED FOR SPEED™ PAYBACK

4 сезон

9 сезон

Бесстыжие 9 сезон

Все сериалы

все сериалы на PB.wtf

RePack

FAR CRY 5

Anonymous, доброй ночи, мы не успеваем собрать деньги на оплату серверов за декабрь и январь, помогите нам пожалуйста в это трудное время. В качестве благодарности мы отключим Вам всю рекламу на сайте (укажите свой ник в строку Ваше имя)!

×
  
Magnet ссылка

Бойфренд из будущего / About Time (Ричард Кёртис / Richard Curtis) [2013, Великобритания, Фантастика, драма, комедия, BDRip-AVC] Dub + Eng + Sub (rus, eng) pb.wtf

Бойфренд из будущего через торрент pb.wtf

Раздают: 1 [ 0 KB/s ]
Размер: 2.19 GB | Добавлен: 7 лет назад | Торрент скачан:1188 раз
Скачать  

05-01-2014 12:32 Бойфренд из будущего Скачать торрент  

Бойфренд из будущего
About Time

«A new funny film about love. With a bit of time travel»




Страна: Великобритания
Студия: Translux, Working Title Films
Жанр: фантастика, драма, комедия
Год выпуска: 2013
Продолжительность: 02:03:22

Перевод: Профессиональный (полное дублирование) [Лицензия]
Cубтитры: Русские, английские
Оригинальная аудиодорожка: Английский

Режиссер:
Ричард Кёртис / Richard Curtis

В ролях:
Донал Глисон (Tim), Рэйчел МакАдамс (Mary), Билл Найи (Dad), Том Холландер (Harry), Марго Робби (Charlotte), Лидия Уилсон (Kit Kat), Линдси Дункан (Mum), Ричард Кордери (Uncle D), Джош МакГуайр (Rory), Уилл Меррик (Jay), Ванесса Кирби (Joanna), Том Хьюз (Jimmy Kincade)

Описание:
Тиму повезло — он молодой, симпатичный, многообещающий адвокат, а еще он… умеет перемещаться во времени. И чтобы очаровать девушку своей мечты, он готов повторять первое свидание вновь и вновь. Воистину, любовь с первого взгляда не всегда выходит с первого раза…


Релиз:

Автор рипа: Stalker oK

Сэмпл: multi-up

Качество видео: BDRip-AVC [исходник BD-Remux]
Формат видео: MKV
Видео кодек: AVC
Аудио кодек: AC3
Видео: 1768 Кбит/сек, 1056*440 (2,40:1), в 23,976 кадр/сек, AVC
Аудио #1: Russian, 384 Кбит/сек, 48,0 КГц, 16 бит, 6 канала(ов), AC-3
Аудио #2: English, 384 Кбит/сек, 48,0 КГц, 16 бит, 6 канала(ов), AC-3
Общее
Уникальный идентификатор : 227522254746235500675332321182256023302 (0xAB2B313D648516F484C752224BE14706)
Полное имя : H:Бойфренд из будущегоНовая папкаBojfrend_iz_budushhego_2013_BDRip_AVC_Dub_2.18__stalkerok_new-team.mkv
Формат : Matroska
Размер файла : 2,19 Гбайт
Продолжительность : 2 ч. 3 м.
Общий поток : 2538 Кбит/сек
Название фильма : About Time 2013 (New-Team) (Rip by Stalker oK)
Дата кодирования : UTC 2014-01-04 17:18:12
Программа кодирования : mkvmerge v6.2.0 ('Promised Land') built on Apr 28 2013 12:22:01
Библиотека кодирования : libebml v1.3.0 + libmatroska v1.4.0

Видео
Идентификатор : 1
Формат : AVC
Формат/Информация : Advanced Video Codec
Профиль формата : High@L4.1
Параметр CABAC формата : Да
Параметр ReFrames формата : 11 кадры
Идентификатор кодека : V_MPEG4/ISO/AVC
Продолжительность : 2 ч. 3 м.
Битрейт : 1768 Кбит/сек
Ширина : 1056 пикс.
Высота : 440 пикс.
Соотношение сторон : 2,40:1
Частота кадров : 23,976 кадр/сек
Цветовое пространство : YUV
Подвыборка цветности : 4:2:0
Битовая глубина : 8 бит
Тип развёртки : Прогрессивная
Бит/(Пиксели*Кадры) : 0.159
Размер потока : 1,48 Гбайт (68%)
Библиотека кодирования : x264 core 138 r2358 9e941d1
Настройки программы : cabac=1 / ref=11 / deblock=1:-3:-2 / analyse=0x3:0x133 / me=umh / subme=11 / psy=1 / psy_rd=1.00:0.10 / mixed_ref=1 / me_range=48 / chroma_me=1 / trellis=2 / 8x8dct=1 / cqm=0 / deadzone=21,11 / fast_pskip=0 / chroma_qp_offset=-3 / threads=6 / lookahead_threads=1 / sliced_threads=0 / nr=0 / decimate=0 / interlaced=0 / bluray_compat=0 / constrained_intra=0 / bframes=11 / b_pyramid=2 / b_adapt=2 / b_bias=0 / direct=3 / weightb=1 / open_gop=0 / weightp=2 / keyint=240 / keyint_min=23 / scenecut=40 / intra_refresh=0 / rc_lookahead=80 / rc=2pass / mbtree=0 / bitrate=1768 / ratetol=1.0 / qcomp=0.65 / qpmin=0 / qpmax=69 / qpstep=4 / cplxblur=20.0 / qblur=0.5 / vbv_maxrate=30000 / vbv_bufsize=40000 / nal_hrd=none / ip_ratio=1.40 / pb_ratio=1.30 / aq=2:0.90

Аудио #1
Идентификатор : 2
Формат : AC-3
Формат/Информация : Audio Coding 3
Расширение режима : CM (complete main)
Идентификатор кодека : A_AC3
Продолжительность : 2 ч. 3 м.
Вид битрейта : Постоянный
Битрейт : 384 Кбит/сек
Канал(ы) : 6 канала(ов)
Расположение каналов : Front: L C R, Side: L R, LFE
Частота : 48,0 КГц
Битовая глубина : 16 бит
Метод сжатия : С потерями
Размер потока : 339 Мбайт (15%)
Заголовок : AC3 5.1 @ 384 kbps - Dub License
Язык : Russian

Аудио #2
Идентификатор : 3
Формат : AC-3
Формат/Информация : Audio Coding 3
Расширение режима : CM (complete main)
Идентификатор кодека : A_AC3
Продолжительность : 2 ч. 3 м.
Вид битрейта : Постоянный
Битрейт : 384 Кбит/сек
Канал(ы) : 6 канала(ов)
Расположение каналов : Front: L C R, Side: L R, LFE
Частота : 48,0 КГц
Битовая глубина : 16 бит
Метод сжатия : С потерями
Размер потока : 339 Мбайт (15%)
Заголовок : AC3 5.1 @ 384 kbps
Язык : English

Текст #1
Идентификатор : 4
Формат : UTF-8
Идентификатор кодека : S_TEXT/UTF8
Идентификатор кодека/Информация : UTF-8 Plain Text
Заголовок : Fors
Язык : Russian

Текст #2
Идентификатор : 5
Формат : UTF-8
Идентификатор кодека : S_TEXT/UTF8
Идентификатор кодека/Информация : UTF-8 Plain Text
Язык : Russian

Текст #3
Идентификатор : 6
Формат : UTF-8
Идентификатор кодека : S_TEXT/UTF8
Идентификатор кодека/Информация : UTF-8 Plain Text
Язык : English

Меню
00:00:00.000 : en:00:00:00.000
00:03:58.071 : en:00:03:58.071
00:10:11.902 : en:00:10:11.902
00:17:26.295 : en:00:17:26.295
00:20:38.111 : en:00:17:26.295
00:26:04.396 : en:00:26:04.396
00:32:44.003 : en:00:32:44.003
00:40:26.590 : en:00:40:26.590
00:45:17.965 : en:00:45:17.965
00:49:43.438 : en:00:49:43.438
00:54:50.870 : en:00:54:50.870
01:03:44.529 : en:01:03:44.529
01:09:29.373 : en:01:09:29.373
01:16:28.000 : en:01:16:28.000
01:21:35.724 : en:01:21:35.724
01:27:24.447 : en:01:27:24.447
01:34:52.812 : en:01:34:52.812
01:43:48.847 : en:01:43:48.847
01:49:32.315 : en:01:49:32.315
01:57:03.141 : en:01:57:03.141
pb.wtf



Скачать Бойфренд из будущего через торрент http://i4.imageban.ru/out/2013/11/20/23afd37ba301cf29b16658cd2201c4ed.png Скачать фильм Бойфренд из будущего через торрент бесплантно в хорошем качестве Описание:Тиму повезло — он молодой, симпатичный, многообещающий адвокат, а еще он… умеет перемещаться во времени. И чтобы очаровать девушку ... 9.5 10 13
Info! Золотая раздача, скачанное не засчитывается.
Торрент: Зарегистрирован [2014-01-05 12:32] · скачан: 1 188 раз
Статус: √ проверено
Размер: 2.19 GB
Как cкачать? Как скачать Бойфренд из будущего через торрент | UTorrent

% Раздел Тема Автор DL S | L
Фильмы 2013 [DVDrip, WEB-DLRip, HDrip] [ 2.05 GB ] Бойфренд из будущего / About Time [2013 BDRip ] coc900 Скачать
1 | 0
Фильмы (DVD фильмы) [ 4.37 GB ] Бойфренд из будущего / About Time DVD5 от New-Team / D / Сжатый DEVI Скачать
1 | 0
Фильмы (DVD фильмы) [ 7.36 GB ] Бойфренд из будущего / About Time [2013 DVD9] R5 voovaz Скачать
1 | 0
Фильмы 2013 [DVDrip, WEB-DLRip, HDrip] [ 1.46 GB ] Бойфренд из будущего / About Time [2013 HDRip ] MihailHD Скачать
1 | 0
Фильмы (Blu-ray, BD-Remux, HDDVD) [ 44.12 GB ] Бойфренд из будущего / About Time [2013 Blu-ray CEE ] Pavlin Скачать
1 | 0
Фильмы 2013 [DVDrip, WEB-DLRip, HDrip] [ 747 MB ] Бойфренд из будущего / About Time [2013 BDRip-AVC] Dub + Sub sokol_ok Скачать
2 | 0
Фильмы [HD 720p, 1080p] (Хороший звук DUB, MVO) [ 10.71 GB ] Бойфренд из будущего / About Time [2013 BDRip 1080p] diletant Скачать
1 | 0

28-11-2019 20:33  

Отключить всю рекламу на сайте

05-01-2014 12:35 Бойфренд из будущего Скачать торрент  

Vetаl писал(а):

sokol_ok
Бойфренд из будущего / About Time
Как правильно сделать сравнение скриншотов

Сравнения с http://pb.wtf/topic/130293/
первый кадр конкурент, второй мой
http://screenshotcomparison.com/comparison/55883/picture:0
http://screenshotcomparison.com/comparison/55885/picture:2
http://screenshotcomparison.com/comparison/55886/picture:2
детализация у меня будет получше (волосы, глаза и тп) и темные участки кадра (у конкурента они отдают оттенком зелёного)
Желательно смотреть и искать разницу в тёмной тёмной комнате с белыми дверями)
pb.wtf



05-01-2014 14:16 Бойфренд из будущего Скачать торрент  

Ничего лучшего я не увидел и это видно. тебе даже написали в теме на твоем трекере об этом. тока зачем их по три делать надо?
Тут даже при большем битрейте наполнение кадра хуже. ну да ладно pb.wtf



05-01-2014 15:58 Бойфренд из будущего Скачать торрент  

Британия в отличие от пендосов очень радует как и франция, видимо Россия и Америка сговорились кто тупее кино выпустит. Отличный душевный фильм.pb.wtf



11-01-2014 18:44 Бойфренд из будущего Скачать торрент  

Замечательный до слез фильм! Как таллантливые люди умеют снять фильм, который берет за душу, а "именитые" за баснословные суммы ваяют кучи гоVна еще и в Imax и т.д.pb.wtf



28-06-2014 15:18 Бойфренд из будущего Скачать торрент  

potroks писал(а):

Ничего лучшего я не увидел и это видно. тебе даже написали в теме на твоем трекере об этом. тока зачем их по три делать надо?
Тут даже при большем битрейте наполнение кадра хуже. ну да ладно

Магистр Йодо что-то курит, и ты наверное что-то тяжелее... rofl roflpb.wtf



    Дорогой пользователь! Огромная просьба, поблагодарите релизера, оцените раздачу и оставьте свои комментарий, если Вы скачали Бойфренд из будущего через торрент бесплатно! Внесите свою лепту в развитие PiratBit!
    Комментировать посты могут только пользователи прошедшие не сложную регистрацию
    Показать сообщения:    

    Бойфренд из будущего через торрент
    Скачать бесплатно Бойфренд из будущего
    Бойфренд из будущего скачать торрент
    Бойфренд из будущего смотреть онлайн
    Cкачать фильм Бойфренд из будущего бесплатно
    Бойфренд из будущего скачать торрент в хорошем качестве
    Бойфренд из будущего смотреть онлайн бесплатно в хорошем качестве


    Вы не можете начинать темы
    Вы не можете отвечать на сообщения
    Вы не можете редактировать свои сообщения
    Вы не можете удалять свои сообщения
    Вы не можете голосовать в опросах
    Вы не можете прикреплять файлы к сообщениям
    Вы можете скачивать файлы