Ссылка на приватное зеркало нашего сайта всего за 1$. Внимание количество ограничено!!!

2 сезон

iTunes

1 сезон

1

iTunes

iTunes

iTunes

1 сезон

RePack

30

ИГРА 18+

pack

ВАЖНО

!!Акция!!

Alien_RageХит недели

RePack

MK11
pack

Забери бонус

RePack

jed

!!Акция!!

Alien_Rage

RePack

fifa19

RePack

Assassins Creed: Odyssey

RePack

NEED FOR SPEED™ PAYBACK

4 сезон

9 сезон

Бесстыжие 9 сезон

Все сериалы

все сериалы на PB.wtf

RePack

FAR CRY 5
  

Фаро/ Faro (Фредерик Эдфельдт) [2013 г., драма,приключение DVDRip, Любительский одноголосый .(datynet)] pb.wtf

Фаро через торрент pb.wtf

Размер: 1.36 GB | Добавлен: 6 лет 9 мес. назад | Торрент скачан:98 раз
Скачать  

05-01-2014 14:31 Фаро Скачать торрент  

Фаро/Faro
Год выпуска: 2013
Страна: Швеция, Финляндия
Жанр: драма, приключения,
Продолжительность: 01:27:22
Перевод: Любительский одноголосый .(datynet)
Тип релиза:
Субтитры: Нет

Режиссер: Фредерик Эдфельдт
Продюссер: Анна Кронеман, Фатима Вархос, Алекси Барди
Сценарий: Карин Аррхениус

Премьера в мире: 26 января 2013,



В ролях: Per Burell,Якоб Седергрен,Клара Христианссон,Гуннель Фред, Мария Хайсканен, Ёран Стангерц,.


Отца за убийство разыскивает полиция. Если его посадят, дочь отправят в приют. Не желая терять свободу, отец уходит вместе с дочерью в лес. Первые недели проходят незаметно. Они добывают себе пищу, обустраивают жилище, пытаются выжить. Отец рассказывает дочери о матери, которую она почти не видела. Но скоро лето подходит к концу, и полиция выходит на след.


Качество: DVDRip
Формат: AVI
Видео кодек: XviD
Аудио кодек: MP3
Видео: 2 029 кило/бит сек, 720x304(2.35:1), 25 кадр/сек MPEG-4 Lauer (XviD)
Аудио#1: 192 кило/бит сек 44.1 КГц стерео 2 канала(ов) MPEG-Audio Lauer-3





M:VIDEOHaunt (2013).avi
General
Complete name : M:VIDEOHaunt (2013).avi
Format : AVI
Format/Info : Audio Video Interleave
File size : 1.36 GiB
Duration : 1h 27mn
Overall bit rate : 2 231 Kbps
Writing application : VirtualDubMod 1.5.10.2 (build 2540/release)
Writing library : VirtualDub build 34753/release
Video #0
ID : 0
Format : MPEG-4 Visual
Format profile : Advanced Simple@L5
Format settings, BVOP : 2
Format settings, QPel : No
Format settings, GMC : No warppoints
Format settings, Matrix : Custom
Codec ID : XVID
Codec ID/Hint : XviD
Duration : 1h 27mn
Bit rate : 2 029 Kbps
Width : 720 pixels
Height : 304 pixels
Display aspect ratio : 2.35:1
Frame rate : 25.000 fps
Color space : YUV
Chroma subsampling : 4:2:0
Bit depth : 8 bits
Scan type : Progressive
Compression mode : Lossy
Bits/(Pixel*Frame) : 0.371
Stream size : 1.24 GiB (91%)
Writing library : XviD 1.2.1 (UTC 2008-12-04)
Audio #1
ID : 1
Format : MPEG Audio
Format version : Version 1
Format profile : Layer 3
Codec ID : 55
Codec ID/Hint : MP3
Duration : 1h 27mn
Bit rate mode : Constant
Bit rate : 192 Kbps
Channel(s) : 2 channels
Sampling rate : 44.1 KHz
Compression mode : Lossy
Stream size : 120 MiB (9%)
Alignment : Split accross interleaves
Interleave, duration : 40 ms (1.00 video frame)
Interleave, preload duration : 500 ms

скриншот   скриншот   скриншот   скриншот   скриншот  


Фаро скачать торрент



pb.wtf



Скачать Фаро через торрент http://pic.kartinco.top/images/4/bvcip.jpg Скачать фильм Фарочерез торрент бесплантно в хорошем качестве В ролях: Per Burell,Якоб Седергрен,Клара Христианссон,Гуннель Фред, Мария Хайсканен, Ёран Стангерц,. Отца за убийство разыскивает ... 9.7 10 6
Info! Золотая раздача, скачанное не засчитывается.
Торрент: Зарегистрирован [2014-01-05 15:36] · скачан: 98 раз
Статус: T временная
Размер: 1.36 GB
Как cкачать? Как скачать Фаро через торрент | qTorrent

% Раздел Тема Автор DL S | L
Фильмы 2006-2008 [ 1.44 GB ] Мой друг из Фаро / Mein Freund aus Faro [2008 Германия DVDRipЛюбительский KEYS Скачать
1 | 0
Фильмы 2001-2005 [ 1.38 GB ] 11:11: У Дьявола новое число / 11:11 [2004 DVDRip] smaster Скачать
1 | 0


Последний раз редактировалось: MrKuzj (2014-01-05 15:36), всего редактировалось 7 раз(а)

28-11-2019 20:33  

Отключить всю рекламу на сайте

05-01-2014 15:12 Фаро Скачать торрент  

Господа не качайте трейлер не похож на фильм. Сейчас детально посмотрю!
Всё точно! Сейчас переделаю оформления релиза это другой фильм "Faro"pb.wtf



05-01-2014 16:16 Фаро Скачать торрент  

Сэмпл и скриншоты теперь с правильного фильма?pb.wtf



05-01-2014 17:38 Фаро Скачать торрент  

Messa-fan писал(а):

Сэмпл и скриншоты теперь с правильного фильма?

И то и другое делается с загруженного файла. По ним я и определил,что фильм совершенно другой.
Для справки: Когда загружаешь файл из сети названия у него может быть какое угодно.И лишь потом в нём можно разобраться. pb.wtf



05-01-2014 19:03 Фаро Скачать торрент  

Если бы ещё можно было скачать егоpb.wtf



    Дорогой пользователь! Огромная просьба, поблагодарите релизера, оцените раздачу и оставьте свои комментарий, если Вы скачали Фаро через торрент бесплатно! Внесите свою лепту в развитие PiratBit!
    Комментировать посты могут только пользователи прошедшие не сложную регистрацию
    Показать сообщения:    

    Фаро через торрент
    Скачать бесплатно Фаро
    Фаро скачать торрент
    Фаро смотреть онлайн
    Cкачать фильм Фаро бесплатно
    Фаро скачать торрент в хорошем качестве
    Фаро смотреть онлайн бесплатно в хорошем качестве


    Вы не можете начинать темы
    Вы не можете отвечать на сообщения
    Вы не можете редактировать свои сообщения
    Вы не можете удалять свои сообщения
    Вы не можете голосовать в опросах
    Вы не можете прикреплять файлы к сообщениям
    Вы можете скачивать файлы