Присоединяйтесь к нам в Telegram!, здесь всегда актуальный адрес сайта, оперативная поддержка и многое другое!!

>

5.9

iTunes

7.4

iTunes

9.4

1 сезон

1

7.4

2 сезон

7.2

iTunes

7.3

1 сезон

13

6.1

iTunes

8.3

GOG

30

ULTIMATE

pack

9.9

Лицензия

ВАЖНО

ИГРА 18+

pack

7.3

RePack

MK11

7.7

RePack

jed

7.8

RePack

fifa19

8.5

RePack

RDR2

RePack

NEED FOR SPEED™ PAYBACK

5 сезон

9 сезон

Бесстыжие 9 сезон

Все сериалы

все сериалы на PB.wtf

RePack

FAR CRY 5

Anonymous, добрый день, мы катастрофически не успеваем собрать деньги на оплату серверов, помогите нам пожалуйста 5,10,15р., для нас важна любая помощь . В качестве благодарности мы отключим Вам всю рекламу на сайте (укажите свой ник в строку Ваше имя)!

×
  
Magnet ссылка

Baccara - Клипография / Baccara [2008 г., Pop, Disco, DVDRip] pb.wtf

Baccara - Клипография через торрент pb.wtf

Размер: 1.99 GB | Добавлен: 7 лет 10 мес. назад | Торрент скачан:45 раз
Смотреть онлайн Baccara - Клипография | Скачать    Ребята, помогите собрать деньги на оплату серверов!!!

05-01-2014 15:44 Baccara - Клипография Скачать торрент  

Baccara - Клипография
Год выпуска: 2008
Страна: Испания
Жанр: Pop, Disco
Продолжительность: 01:06:00
Перевод: Оригинал

В ролях: Мэйт Матеус, Мария Мендиола

Описание: Baccara» это испанский дуэт в составе Mayte Mateus (Мэйт Матеус) и Maria Mediolo (Мария Мендиола).Мэйт дипломированный преподаватель Испанской Королевской академии искусств была направлена для работы с Балетом испанского телевидения. В процессе работы она знакомится с Марией. Девушки так подружились, что решили сделать что-нибудь вдвоем...
Yes Sir I Can Boogie [remix2003]
Granada
Soy Tu Venus
Yes Sir, I Can Boogie [-hitparty ZDF.2007]
Cara mia
Sorry I'm A Lady
Yes Sir I Can Boogie
Parlez-vous-francais (Musikladen)
LA BAMBA
Baccara - Yes Sir, I Can Boogie
The Devil Sent You To Loredo
Goodbye my sailor
Sorry I'm A Lady2
Sorry I'm A Lady[Musikladen]
Darling[Musikladen]
The Devil Send You To Lorado[Musikladen]
Darling(Disco)
Sorry I'm A Lady (Disco 1977)
Yes Sir, I Can Boogie (Disco)
Качество: DVDRip
Формат: AVI
Видео кодек: XviD
Аудио кодек: AC3
Видео: Xvid 720x544, 25.00fps, 3 867 Kbps
Аудио: Dolby AC3, 48000Hz stereo, 448kbps
Релиз от: _ilu_





General
Complete name : E:Baccara - Video CollectionBaccara _ilu_.avi
Format : AVI
Format/Info : Audio Video Interleave
Format profile : OpenDML
File size : 1.99 GiB
Duration : 1h 6mn
Overall bit rate : 4 324 Kbps
Writing application : VirtualDubMod 1.5.4.1 (build 2178/release)
Writing library : VirtualDubMod build 2178/release

Video
ID : 0
Format : MPEG-4 Visual
Format profile : Advanced Simple@L5
Format settings, BVOP : 1
Format settings, QPel : No
Format settings, GMC : No warppoints
Format settings, Matrix : Custom
Codec ID : XVID
Codec ID/Hint : XviD
Duration : 1h 6mn
Bit rate : 3 867 Kbps
Width : 720 pixels
Height : 544 pixels
Display aspect ratio : 4:3
Frame rate : 25.000 fps
Color space : YUV
Chroma subsampling : 4:2:0
Bit depth : 8 bits
Scan type : Progressive
Compression mode : Lossy
Bits/(Pixel*Frame) : 0.395
Stream size : 1.78 GiB (89%)
Writing library : XviD 1.2.1 (UTC 2008-12-04)

Audio
ID : 1
Format : AC-3
Format/Info : Audio Coding 3
Mode extension : CM (complete main)
Codec ID : 2000
Duration : 1h 6mn
Bit rate mode : Constant
Bit rate : 448 Kbps
Channel(s) : 2 channels
Channel positions : Front: L R
Sampling rate : 48.0 KHz
Bit depth : 16 bits
Compression mode : Lossy
Stream size : 212 MiB (10%)
Alignment : Split accross interleaves
Interleave, duration : 96 ms (2.40 video frames)
Interleave, preload duration : 96 ms

pb.wtf



Скачать Baccara - Клипография через торрент https://pic1.kartinco.top/images/61/f3qjy.jpg Скачать, смотреть онлайн Baccara - Клипография бесплантно в хорошем качестве Описание: Baccara» это испанский дуэт в составе Mayte Mateus (Мэйт Матеус) и Maria Mediolo (Мария Мендиола).Мэйт дипломированный ... 10 10 4
Info! Золотая раздача, скачанное не засчитывается.
Торрент: Зарегистрирован [2014-01-05 15:44] · скачан: 45 раз
Статус: √ проверено
Размер: 1.99 GB
Как cкачать? Как скачать Baccara - Клипография через торрент | UTorrent

28-11-2019 20:33  

Отключить всю рекламу на сайте

    Дорогой пользователь! Огромная просьба, поблагодарите релизера, оцените раздачу и оставьте свои комментарий, если Вы скачали Baccara - Клипография через торрент бесплатно!
    Комментировать посты могут только пользователи прошедшие не сложную регистрацию
    Показать сообщения:    

    Baccara - Клипография через торрент
    Скачать бесплатно Baccara - Клипография
    Baccara - Клипография скачать торрент
    Baccara - Клипография смотреть онлайн
    Cкачать фильм Baccara - Клипография бесплатно
    Baccara - Клипография скачать торрент в хорошем качестве
    Baccara - Клипография смотреть онлайн бесплатно в хорошем качестве


    Вы не можете начинать темы
    Вы не можете отвечать на сообщения
    Вы не можете редактировать свои сообщения
    Вы не можете удалять свои сообщения
    Вы не можете голосовать в опросах
    Вы не можете прикреплять файлы к сообщениям
    Вы можете скачивать файлы