2 сезон

iTunes

MVO

1

2 сезон

iTunes

iTunes

1 сезон

RePack

30

Новинка

ВАЖНО

ИГРА 18+

pack

RePack

MK11
pack

Легкие деньги

RePack

jed

RePack

fifa19

RePack

RDR2

RePack

NEED FOR SPEED™ PAYBACK

4 сезон

9 сезон

Бесстыжие 9 сезон

Все сериалы

все сериалы на PB.wtf

RePack

FAR CRY 5

Anonymous, добрый вечер, мы не успеваем собрать деньги на оплату серверов за декабрь и январь, помогите нам пожалуйста в это трудное время. В качестве благодарности мы отключим Вам всю рекламу на сайте (укажите свой ник в строку Ваше имя)!

×
  
Magnet ссылка

Ниндзя 2 / Ninja: Shadow of a Tear (Айзек Флорентайн / Isaac Florentine) [2013 г., Боевик, триллер, криминал, BDRip-AVC] DVO (Paradox) + Original (Eng) + Sub (eng) pb.wtf

Ниндзя 2 через торрент pb.wtf

Размер: 2.18 GB | Добавлен: 7 лет назад | Торрент скачан:1812 раз
Скачать  

05-01-2014 16:55 Ниндзя 2 Скачать торрент  

Ниндзя 2 / Ninja: Shadow of a Tear
Год выпуска: 2013
Страна: Таиланд, США / Swingin' Productions LLC
Жанр: Боевик, триллер, криминал,
Продолжительность: 01:34:43
Перевод: Любительский двухголосый[Студия "Paradox"]
Субтитры: Английские (SDH)

Режиссер: Айзек Флорентайн / Isaac Florentine



В ролях: Скотт Эдкинс, Витхая Пансрингарм, Кейн Косуги, Тим Ман, Чарли Рюдпоканон, Рон Смуренбург, Мика Хиджии, Сюн Сугата, Эрика Нагаминэ, Патрик Тэнг,

Описание: Кейси Боумен, наконец, начал оседлую жизнь. Он в счастливом браке с Намико (которая беременна первенцем), живёт в Японии и преподаёт в додзё Кога. Однажды на Кейси, отправившегося за подарком для жены, нападает пара отморозков. Он не придаёт этому значения, считая всё обычным грабежом. Но когда той же ночью жестоко убивают Намико, мир Кейси рушится на части. Поражённый горем и пылающий жаждой мести, Кейси выслеживает двух бандитов, пытавшихся его ограбить, но те не могут предоставить ему ключи к разгадке убийства его жены. Поэтому Кейси отправляется в Таиланд, в додзё близкого друга. Горе и гнев берут над ним верх, и он «срывается» во время спарринга с учениками. Когда одного из учеников убивают так же, как и Намико, Кейси, наконец, находит улики, которые ему нужны для того, чтобы выследить убийцу своей жены и разгадать тайну, хранящуюся в глубине бирманских джунглей.

Качество: BDRip-AVC
Формат: MKV
Видео кодек: H.264
Аудио кодек: AC3
Видео: 1024x576 (16:9), 23,976 fps, 2406 Кbps, 0.170 bit/pixel
Аудио#1: 48 kHz, AC3 Dolby Digital, 3/2 (L,C,R,l,r) + LFE ch, 448.00 kbps | RUS
Аудио#2: 48 kHz, AC3 Dolby Digital, 3/2 (L,C,R,l,r) + LFE ch, 448.00 kbps | ENG

Релиз группы:
Автор рипа: potroks





Общее
Уникальный идентификатор : 253764328565692188193590778055383453216 (0xBEE93B5F1F450B03B97DE9D0D01E0E20)
Полное имя : Nindzja.2.2013.DUAL.BDRip.x264.-HELLYWOOD.mkv
Формат : Matroska
Версия формата : Version 4 / Version 2
Размер файла : 2,18 Гбайт
Продолжительность : 1 ч. 34 м.
Общий поток : 3301 Кбит/сек
Название фильма : HELLYWOOD - rip by potroks
Дата кодирования : UTC 2014-01-05 16:23:18
Программа кодирования : mkvmerge v5.9.0 ('On The Loose') built on Dec 15 2012 16:39:58
Библиотека кодирования : libebml v1.3.0 + libmatroska v1.4.0

Видео
Идентификатор : 1
Формат : AVC
Формат/Информация : Advanced Video Codec
Профиль формата : High@L4.1
Параметр CABAC формата : Да
Параметр ReFrames формата : 13 кадров
Идентификатор кодека : V_MPEG4/ISO/AVC
Продолжительность : 1 ч. 34 м.
Битрейт : 2406 Кбит/сек
Ширина : 1024 пикселя
Высота : 576 пикселей
Соотношение сторон : 16:9
Режим частоты кадров : Постоянный
Частота кадров : 23,976 кадра/сек
Цветовое пространство : YUV
Субдискретизация насыщенности : 4:2:0
Битовая глубина : 8 бит
Тип развёртки : Прогрессивная
Бит/(Пиксели*Кадры) : 0.170
Размер потока : 1,55 Гбайт (71%)
Заголовок : Ninja: Shadow of a Tear
Библиотека кодирования : x264 core 130 r2273 b3065e6
Настройки программы : cabac=1 / ref=13 / deblock=1:-2:-2 / analyse=0x3:0x133 / me=umh / subme=11 / psy=1 / psy_rd=1.08:0.00 / mixed_ref=1 / me_range=32 / chroma_me=1 / trellis=2 / 8x8dct=1 / cqm=0 / deadzone=21,11 / fast_pskip=0 / chroma_qp_offset=-2 / threads=9 / lookahead_threads=8 / sliced_threads=0 / nr=0 / decimate=0 / interlaced=0 / bluray_compat=0 / constrained_intra=0 / bframes=14 / b_pyramid=2 / b_adapt=2 / b_bias=0 / direct=3 / weightb=1 / open_gop=0 / weightp=2 / keyint=250 / keyint_min=23 / scenecut=40 / intra_refresh=0 / rc_lookahead=60 / rc=2pass / mbtree=0 / bitrate=2406 / ratetol=1.0 / qcomp=0.70 / qpmin=0 / qpmax=69 / qpstep=4 / cplxblur=20.0 / qblur=0.5 / vbv_maxrate=20000 / vbv_bufsize=25000 / nal_hrd=none / ip_ratio=1.35 / pb_ratio=1.25 / aq=1:0.70
Язык : English
Default : Да
Forced : Нет

Аудио #1
Идентификатор : 2
Формат : AC-3
Формат/Информация : Audio Coding 3
Расширение режима : CM (complete main)
Параметр Endianness формата : Big
Идентификатор кодека : A_AC3
Продолжительность : 1 ч. 34 м.
Вид битрейта : Постоянный
Битрейт : 448 Кбит/сек
Каналы : 6 каналов
Расположение каналов : Front: L C R, Side: L R, LFE
Частота : 48,0 КГц
Битовая глубина : 16 бит
Метод сжатия : С потерями
Размер потока : 304 Мбайт (14%)
Заголовок : DVO | DD 5.1 @ 448 kbps - Студия "Paradox"
Язык : Russian
Default : Да
Forced : Да

Аудио #2
Идентификатор : 3
Формат : AC-3
Формат/Информация : Audio Coding 3
Расширение режима : CM (complete main)
Параметр Endianness формата : Big
Идентификатор кодека : A_AC3
Продолжительность : 1 ч. 34 м.
Вид битрейта : Постоянный
Битрейт : 448 Кбит/сек
Каналы : 6 каналов
Расположение каналов : Front: L C R, Side: L R, LFE
Частота : 48,0 КГц
Битовая глубина : 16 бит
Метод сжатия : С потерями
Размер потока : 304 Мбайт (14%)
Заголовок : Original | DD 5.1 @ 448 kbps
Язык : English
Default : Нет
Forced : Нет

Текст
Идентификатор : 4
Формат : UTF-8
Идентификатор кодека : S_TEXT/UTF8
Идентификатор кодека/Информация : UTF-8 Plain Text
Язык : English
Default : Нет
Forced : Нет

Меню
00:00:00.000 : en:(01)00:00:00:000
00:09:55.677 : en:(02)00:09:55:677
00:14:57.437 : en:(03)00:14:57:437
00:23:10.137 : en:(04)00:23:10:137
00:31:01.358 : en:(05)00:31:01:358
00:40:25.172 : en:(06)00:40:25:172
00:50:03.666 : en:(07)00:50:03:666
01:00:27.331 : en:(08)01:00:27:331
01:06:58.431 : en:(09)01:06:58:431
01:14:39.349 : en:(10)01:14:39:349
01:17:03.993 : en:(11)01:17:03:993
01:29:38.287 : en:(12)01:29:38:287
01:34:43.426 : en:(13)01:34:43:426

pb.wtf



Скачать Ниндзя 2 через торрент http://i57.fastpic.ru/big/2014/0105/14/62339e86c0ee1322b7ee820149981314.png Скачать фильм Ниндзя 2 через торрент бесплантно в хорошем качестве Описание: Кейси Боумен, наконец, начал оседлую жизнь. Он в счастливом браке с Намико (которая беременна первенцем), живёт в Японии и ... 9 10 40
Info! Золотая раздача, скачанное не засчитывается.
Торрент: Зарегистрирован [2014-01-05 16:55] · скачан: 1 812 раз
Статус: √ проверено
Размер: 2.18 GB
Как cкачать? Как скачать Ниндзя 2 через торрент | UTorrent

% Раздел Тема Автор DL S | L
Фильмы [HD 720p, 1080p] (Хороший звук DUB, MVO) [ 7.05 GB ] Ниндзя 2 / Ninja: Shadow of a Tear [2013 BDRip 1080p] DVO msltel Скачать
1 | 0
Фильмы 2013 (Звук TS, Cam, VO, DVO) [ 2.05 GB ] Ниндзя 2 / Ninja: Shadow of a Tear [ 2013 Таиланд BDRip ] DVO- [Студия "Paradox"] Ворон Скачать
1 | 0
Фильмы (Blu-ray, BD-Remux, HDDVD) [ 17.4 GB ] Ниндзя 2 / Ninja: Shadow of a Tear [2013 BDRemux 1080 DVO] кэп Скачать
1 | 0
Фильмы 2013 (Звук TS, Cam, VO, DVO) [ 1.37 GB ] Ниндзя 2 / Ninja: Shadow of a Tear [2013 WEB-DLRip Любительский Двухголосый 'Paradox'] DEVI Скачать
1 | 0

28-11-2019 20:33  

Отключить всю рекламу на сайте


05-01-2014 21:03 Ниндзя 2 Скачать торрент  

а вот это тема!!pb.wtf



07-01-2014 11:13 Ниндзя 2 Скачать торрент  

нууу блииин,сэмпл кончился на самом интересном месте pb.wtf



07-01-2014 11:50 Ниндзя 2 Скачать торрент  

Очень скучный фильм, правда!pb.wtf



07-01-2014 19:15 Ниндзя 2 Скачать торрент  

так себе...pb.wtf



12-01-2014 01:05 Ниндзя 2 Скачать торрент  

нормальный фильм,на разок,скот эдкинс как всегда крут!!pb.wtf



12-01-2014 16:06 Ниндзя 2 Скачать торрент  

Давно подобной чуши не было.pb.wtf



    Дорогой пользователь! Огромная просьба, поблагодарите релизера, оцените раздачу и оставьте свои комментарий, если Вы скачали Ниндзя 2 через торрент бесплатно! Внесите свою лепту в развитие PiratBit!
    Комментировать посты могут только пользователи прошедшие не сложную регистрацию
    Показать сообщения:    

    Ниндзя 2 через торрент
    Скачать бесплатно Ниндзя 2
    Ниндзя 2 скачать торрент
    Ниндзя 2 смотреть онлайн
    Cкачать фильм Ниндзя 2 бесплатно
    Ниндзя 2 скачать торрент в хорошем качестве
    Ниндзя 2 смотреть онлайн бесплатно в хорошем качестве


    Вы не можете начинать темы
    Вы не можете отвечать на сообщения
    Вы не можете редактировать свои сообщения
    Вы не можете удалять свои сообщения
    Вы не можете голосовать в опросах
    Вы не можете прикреплять файлы к сообщениям
    Вы можете скачивать файлы