2 сезон

iTunes

MVO

1

2 сезон

iTunes

iTunes

1 сезон

RePack

30

Новинка

ВАЖНО

ИГРА 18+

pack

RePack

MK11
pack

Легкие деньги

RePack

jed

RePack

fifa19

RePack

RDR2

RePack

NEED FOR SPEED™ PAYBACK

4 сезон

9 сезон

Бесстыжие 9 сезон

Все сериалы

все сериалы на PB.wtf

RePack

FAR CRY 5

Anonymous, доброй ночи, мы не успеваем собрать деньги на оплату серверов за декабрь и январь, помогите нам пожалуйста в это трудное время. В качестве благодарности мы отключим Вам всю рекламу на сайте (укажите свой ник в строку Ваше имя)!

×
  
Magnet ссылка

Хочу как Бриджет / Joséphine (Аньес Обадья) [2013 г., комедия, HDRip, Профессиональный многоголосый, Лицензия] pb.wtf

Хочу как Бриджет через торрент pb.wtf

Размер: 1.46 GB | Добавлен: 7 лет назад | Торрент скачан:1206 раз
Скачать  

05-01-2014 17:49 Хочу как Бриджет Скачать торрент  

Хочу как Бриджет / Joséphine

Год выпуска: 2013
Страна: Франция
Выпущено: Union Générale Cinématographique (UGC)
Жанр: комедия
Продолжительность: 01:28:28
Перевод: Профессиональный многоголосый, Лицензия
Тип релиза: Лицензия

Режиссер: Аньес Обадья
Продюссер: Ромен Ройтман, Бенжамин Хесс
Сценарий: Саманта Мазерас, Аньес Обадья
Премьера в мире: 12 июня 2013

IMDB 5.60 (245)


В ролях: Марилу Берри, Мехди Неббу, Беренжер Криф, Армель Чахби, Сирил Гуи, Шарли Дюпон, Алис Поль, Каролин Англад, Брюно Подалидес, Арбен Байрактарай

Описание: Жозефине почти тридцать и у неё большая попа, которая, по её мнению, является главной причиной отсутствия личной жизни. Девушка отчаянно пытается бороться со своей пятой точкой липосакциями и антицеллюлитными мочалками, но всё тщетно. Единственным утешением является то, что она живёт с Брэдом Питтом — именно так зовут ее кота. Но последней каплей станет известие о том, что её сестра выходит замуж. Не в силах смириться с тем, что все вокруг нашли себе половинок, Жозефина придумывает роман с бразильским хирургом, к которому она якобы улетает за океан. И эта маленькая легенда превращает её жизнь в большое приключение со счастливым концом.

Качество: HDRip
Формат: AVI
Видео кодек: XviD
Аудио кодек: AC3
Видео: XviD, 1 967 Kbps, 720x384, 24.000 fps, Bits/(Pixel*Frame): 0.296
Аудио#1: АС3, 6 ch, 384 Kbps, 48.0 KHz
General
Complete name : /etc/seedbox/home/eruslannr/data/Hochu.kak.Bridzhet.2013.P.HDRip.1.45Gb.avi
Format : AVI
Format/Info : Audio Video Interleave
File size : 1.46 GiB
Duration : 1h 28mn
Overall bit rate : 2 360 Kbps
Writing application : VirtualDubMod 1.5.10.3 | www.virtualdub-fr.org || (build 2550/release)
Writing library : VirtualDubMod build 2550/release

Video
ID : 0
Format : MPEG-4 Visual
Format profile : Advanced Simple@L5
Format settings, BVOP : 2
Format settings, QPel : No
Format settings, GMC : No warppoints
Format settings, Matrix : Default (MPEG)
Codec ID : XVID
Codec ID/Hint : XviD
Duration : 1h 28mn
Bit rate : 1 967 Kbps
Width : 720 pixels
Height : 384 pixels
Display aspect ratio : 1.85:1
Frame rate : 24.000 fps
Color space : YUV
Chroma subsampling : 4:2:0
Bit depth : 8 bits
Scan type : Progressive
Compression mode : Lossy
Bits/(Pixel*Frame) : 0.296
Stream size : 1.22 GiB (83%)
Writing library : XviD 1.2.1 (UTC 2008-12-04)

Audio
ID : 1
Format : AC-3
Format/Info : Audio Coding 3
Mode extension : CM (complete main)
Format settings, Endianness : Big
Codec ID : 2000
Duration : 1h 28mn
Bit rate mode : Constant
Bit rate : 384 Kbps
Channel count : 6 channels
Channel positions : Front: L C R, Side: L R, LFE
Sampling rate : 48.0 KHz
Bit depth : 16 bits
Compression mode : Lossy
Stream size : 243 MiB (16%)
Alignment : Split accross interleaves
Interleave, duration : 42 ms (1.00 video frame)
Interleave, preload duration : 500 ms
pb.wtf



Скачать Хочу как Бриджет через торрент http://i2.imageban.ru/out/2014/01/05/5351cd6cfdab9864a22979b0800ca237.png Скачать фильм Хочу как Бриджет через торрент бесплантно в хорошем качестве Описание: Жозефине почти тридцать и у неё большая попа, которая, по её мнению, является главной причиной отсутствия личной жизни. Девушка ... 9.8 10 28
Info! Золотая раздача, скачанное не засчитывается.
Торрент: Зарегистрирован [2014-01-05 17:49] · скачан: 1 206 раз
Статус: √ проверено
Размер: 1.46 GB
Как cкачать? Как скачать Хочу как Бриджет через торрент | UTorrent

% Раздел Тема Автор DL S | L
Фильмы 2013 [DVDrip, WEB-DLRip, HDrip] [ 1.46 GB ] Хочу как Бриджет / Josephine [2013 DVDRip-AVC многоголосый] 1mpulse2k20 Скачать
1 | 0

28-11-2019 20:33  

Отключить всю рекламу на сайте

07-01-2014 14:53 Хочу как Бриджет Скачать торрент  

нормальный фильм)))pb.wtf



18-01-2014 00:48 Хочу как Бриджет Скачать торрент  

посмотрим....pb.wtf



    Дорогой пользователь! Огромная просьба, поблагодарите релизера, оцените раздачу и оставьте свои комментарий, если Вы скачали Хочу как Бриджет через торрент бесплатно! Внесите свою лепту в развитие PiratBit!
    Комментировать посты могут только пользователи прошедшие не сложную регистрацию
    Показать сообщения:    

    Хочу как Бриджет через торрент
    Скачать бесплатно Хочу как Бриджет
    Хочу как Бриджет скачать торрент
    Хочу как Бриджет смотреть онлайн
    Cкачать фильм Хочу как Бриджет бесплатно
    Хочу как Бриджет скачать торрент в хорошем качестве
    Хочу как Бриджет смотреть онлайн бесплатно в хорошем качестве


    Вы не можете начинать темы
    Вы не можете отвечать на сообщения
    Вы не можете редактировать свои сообщения
    Вы не можете удалять свои сообщения
    Вы не можете голосовать в опросах
    Вы не можете прикреплять файлы к сообщениям
    Вы можете скачивать файлы