2 сезон

iTunes

1 сезон

1

iTunes

iTunes

iTunes

1 сезон

RePack

30

ИГРА 18+

pack

ВАЖНО

!!Акция!!

Alien_RageХит недели

RePack

MK11
pack

Забери бонус

RePack

jed

!!Акция!!

Alien_Rage

RePack

fifa19

RePack

Assassins Creed: Odyssey

RePack

NEED FOR SPEED™ PAYBACK

4 сезон

9 сезон

Бесстыжие 9 сезон

Все сериалы

все сериалы на PB.wtf

RePack

FAR CRY 5
  

Люди Хэ / Сезон: 1-2 (Выпуски 1-20 из 20) [2011-2013 гг., Комедийное фэнтези, Пародийное шоу, SATRip] pb.wtf

Люди Хэ через торрент pb.wtf

Размер: 5.59 GB | Добавлен: 6 лет 9 мес. назад | Торрент скачан:107 раз
Скачать  

05-01-2014 18:05 Люди Хэ Скачать торрент  


Люди Хэ / Сезон: 1-2 (Выпуски 1-20 из 20) [2011-2013 гг., Комедийное фэнтези, Пародийное шоу, SATRip]

Год выпуска: 2011
Страна: Россия
Жанр: Комедийное фэнтези, пародийное шоу,
Продолжительность: 20x ≈ 00:24:00
Субтитры: нет

Режиссер: Александр Имакин/Радда Новикова
Продюссер: Вячеслав Муругов
Сценарий: Илья Швецов, Илья Мотовилов, Вадим Пушкарев

В ролях: Александр Ревва (Властелин Кольцов), Сергей Пиоро (Телепат Владимир Тарарыкин), Ольга Приходько (Ворожея Таисия Николаевна Тихачева), Виктория Чернышёва (Ясновидящая Виолетта Трофимова), Руслан Братов (Черный маг Магомед), Юлия Сорокина (Ясновидящая Лиза Туркина), Виталий Шляппо (Медиум Даниил Радин),

Описание: «Люди Хэ» — это пародийное шоу о необычных способностях, казалось бы, обычных людей. Проект преследует две цели: во-первых, заставить поверить в паранормальные явления тех, кто относится к ним скептически; во-вторых, заставить улыбнуться тех, кто в существовании паранормального убежден.

Вокруг нас много людей, обладающих настоящими экстрасенсорными способностями. Старушка-ворожея, девочка с плюшевым медведем, полицейский-телепат, сладкий мальчик со сверхчувствительным сердцем, кавказский маг, девушка с волшебной грудью… «Люди Хэ» обладают такими сверхъестественными способностями, как, например, включение принтера без электричества, излечение женской грудью от облысения и, конечно, банальная левитация. Они не признают авторитетов и не преклоняются перед знаменитостями: снять порчу с Мерседеса Игоря Верника, найти таинственного преследователя Леры Кудрявцевой, остановить необъяснимое появление чужих вещей в доме Юлии Ковальчук, а в квартире Олега Газманова обнаружить серебряные батареи — для них так же легко, как почистить зубы. Наша великолепная шестерка помогает как звездам, так и обычным людям.

Качество: SATRip
Формат: AVI
Видео кодек: XviD
Аудио кодек: MP3
Видео: 704х400 (1.76:1), 720х400 (1.80:1), 25 fps, XviD MPEG-4 ~1400 kbps avg
Аудио#1: 48 kHz, MPEG Layer 3, 2 ch, ~128.00 kbps avg
General
Complete name : D:Люди ХэLjudi He (04).2011.SATRip.avi
Format : AVI
Format/Info : Audio Video Interleave
File size : 273 MiB
Duration : 24mn 26s
Overall bit rate : 1 562 Kbps
Writing application : VirtualDubMod 1.5.10.3 | www.virtualdub-fr.org || (build 2550/release)
Writing library : VirtualDubMod build 2550/release

Video
ID : 0
Format : MPEG-4 Visual
Format profile : Advanced Simple@L5
Format settings, BVOP : 2
Format settings, QPel : No
Format settings, GMC : No warppoints
Format settings, Matrix : Default (MPEG)
Muxing mode : Packed bitstream
Codec ID : XVID
Codec ID/Hint : XviD
Duration : 24mn 26s
Bit rate : 1 424 Kbps
Width : 704 pixels
Height : 400 pixels
Display aspect ratio : 16:9
Frame rate : 25.000 fps
Color space : YUV
Chroma subsampling : 4:2:0
Bit depth : 8 bits
Scan type : Progressive
Compression mode : Lossy
Bits/(Pixel*Frame) : 0.202
Stream size : 249 MiB (91%)
Writing library : XviD 64

Audio
ID : 1
Format : MPEG Audio
Format version : Version 1
Format profile : Layer 3
Mode : Joint stereo
Mode extension : MS Stereo
Codec ID : 55
Codec ID/Hint : MP3
Duration : 24mn 26s
Bit rate mode : Constant
Bit rate : 128 Kbps
Channel(s) : 2 channels
Sampling rate : 48.0 KHz
Compression mode : Lossy
Stream size : 22.4 MiB (8%)
Alignment : Aligned on interleaves
Interleave, duration : 40 ms (1.00 video frame)
Interleave, preload duration : 504 ms
Writing library : LAME3.90.3ЄЄЄЄЄ

pb.wtf



Скачать Люди Хэ через торрент http://pic.kartinco.top/images/6/rz6x7.jpg Скачать фильм Люди Хэ через торрент бесплантно в хорошем качестве Описание: «Люди Хэ» — это пародийное шоу о необычных способностях, казалось бы, обычных людей. Проект преследует две цели: во-первых, ... 10 10 8
Info! Золотая раздача, скачанное не засчитывается.
Торрент: Зарегистрирован [2014-01-05 18:05] · скачан: 107 раз
Статус: √ проверено
Размер: 5.59 GB
Как cкачать? Как скачать Люди Хэ через торрент | qTorrent



Последний раз редактировалось: RubeR0402 (2014-01-05 18:42), всего редактировалось 1 раз

28-11-2019 20:33  

Отключить всю рекламу на сайте

05-01-2014 18:46 Люди Хэ Скачать торрент  

RubeR0402

Цитата:

1. Заголовок

1.1 Общий вид:

Название на русском / Название на оригинале /сезонов (Кол-во серий) (режиссер) [год, жанр, качество]

RubeR0402 писал(а):

Продолжительность: ≈ 00:24:00

Пример http://puu.sh/6aCPY.png
pb.wtf



    Дорогой пользователь! Огромная просьба, поблагодарите релизера, оцените раздачу и оставьте свои комментарий, если Вы скачали Люди Хэ через торрент бесплатно! Внесите свою лепту в развитие PiratBit!
    Комментировать посты могут только пользователи прошедшие не сложную регистрацию
    Показать сообщения:    

    Люди Хэ через торрент
    Скачать бесплатно Люди Хэ
    Люди Хэ скачать торрент
    Люди Хэ смотреть онлайн
    Cкачать фильм Люди Хэ бесплатно
    Люди Хэ скачать торрент в хорошем качестве
    Люди Хэ смотреть онлайн бесплатно в хорошем качестве


    Вы не можете начинать темы
    Вы не можете отвечать на сообщения
    Вы не можете редактировать свои сообщения
    Вы не можете удалять свои сообщения
    Вы не можете голосовать в опросах
    Вы не можете прикреплять файлы к сообщениям
    Вы можете скачивать файлы