Ссылка на приватное зеркало нашего сайта всего за 1$. Внимание количество ограничено!!!

2 сезон

iTunes

1 сезон

1

iTunes

iTunes

iTunes

1 сезон

RePack

30

ИГРА 18+

pack

ВАЖНО

!!Акция!!

Alien_RageХит недели

RePack

MK11
pack

Забери бонус

RePack

jed

!!Акция!!

Alien_Rage

RePack

fifa19

RePack

Assassins Creed: Odyssey

RePack

NEED FOR SPEED™ PAYBACK

4 сезон

9 сезон

Бесстыжие 9 сезон

Все сериалы

все сериалы на PB.wtf

RePack

FAR CRY 5
  

Санта на продажу / Rare Exports (Ялмари Хеландер / Jalmari Helander) [2010 г., Фэнтези, боевик, комедия, BDRip-AVC, Профессиональный (дублированный) / Лицензия] pb.wtf

Санта на продажу через торрент pb.wtf

Размер: 2.18 GB | Добавлен: 6 лет 9 мес. назад | Торрент скачан:97 раз
Скачать  

06-01-2014 08:52 Санта на продажу Скачать торрент  

Санта на продажу / Rare Exports
«В это Рождество в Санту поверят все»


Год выпуска: 2010
Страна: Швеция, Финляндия, Франция, Норвегия
Жанр: Фэнтези, боевик, комедия
Продолжительность: 01:22:45
Перевод: Профессиональный (дублированный) | Лицензия
Субтитры: Русские, Украинские, Английские
Режиссер: Ялмари Хеландер / Jalmari Helander
Продюссер: Агнес Б., Петри Йокиранта, Кнут Скоглунд
Сценарий: Петри Йокиранта, Сами Парккинен, Ялмари Хеландер
Бюджет: €1 948 000
Премьера в мире: 7 августа 2010

В ролях: Onni Tommila, Jorma Tommila, Томми Корпела / Tommi Korpela, Рауно Джавонен / Rauno Juvonen, Пер Кристиан Эллефсен / Per Christian Ellefsen, Илмари Ярвенпаа / Ilmari Järvenpää, Питер Якоби / Peeter Jakobi, Джонатан Хатчингс / Jonathan Hutchings, Ристо Сэлми / Risto Salmi, Дженс Сивертсен / Jens Sivertsen,
Описание: Это фильм для тех, кто думает, что он уже не верит в Санта Клауса. Далеко в заснеженных горах Лапландии, в ущелье на глубине 486 метров обнаружили находку, надежно укрытую от всех. Теперь пришло время открыть ее миру.
Качество: BDRip-AVC
Формат: MKV
Видео кодек: H.264
Аудио кодек: AC3
Видео: H.264 / 1032 x 440 / 2.35:1 / 3008 kbps / 23,976 fps
Аудио#1: Русский / AC3 Dolby Digital / 48 KHz / 384 kbps / 3/2 (L,C,R,l,r) + LFE ch
Аудио#2: Финский / AC3 Dolby Digital / 48 KHz / 384 kbps / 3/2 (L,C,R,l,r) + LFE ch
Релиз от:
скриншот  скриншот  скриншот  скриншот  скриншот  скриншот  

General
Unique ID : 196566414211715289419156057781506847740 (0x93E1507737B6D153879081386572B3FC)
Complete name : I:OtherSanta.Na.Prodazhu.2010.DUAL.BDRip-AVC.AC3.-HQ-ViDEO.mkv
Format : Matroska
Format version : Version 2
File size : 2.18 GiB
Duration : 1h 22mn
Overall bit rate : 3 777 Kbps
Movie name : Santa Na Prodazhu / 2010 / Release by Vaippp / HQ-ViDEO
Encoded date : UTC 2011-11-09 05:46:46
Writing application : mkvmerge v5.0.1 ('Es ist Sommer') built on Oct 9 2011 11:55:43
Writing library : libebml v1.2.2 + libmatroska v1.3.0

Video
ID : 1
Format : AVC
Format/Info : Advanced Video Codec
Format profile : High@L4.1
Format settings, CABAC : Yes
Format settings, ReFrames : 14 frames
Codec ID : V_MPEG4/ISO/AVC
Duration : 1h 22mn
Bit rate : 3 008 Kbps
Width : 1 032 pixels
Height : 440 pixels
Display aspect ratio : 2.35:1
Frame rate : 23.976 fps
Color space : YUV
Chroma subsampling : 4:2:0
Bit depth : 8 bits
Scan type : Progressive
Bits/(Pixel*Frame) : 0.276
Stream size : 1.70 GiB (78%)
Title : BDRip 09/11/2011
Writing library : x264 core 119 r2106 07efeb4
Encoding settings : cabac=1 / ref=14 / deblock=1:-1:-1 / analyse=0x3:0x113 / me=umh / subme=10 / psy=1 / psy_rd=0.95:0.03 / mixed_ref=1 / me_range=48 / chroma_me=1 / trellis=2 / 8x8dct=1 / cqm=0 / deadzone=21,11 / fast_pskip=0 / chroma_qp_offset=-3 / threads=12 / sliced_threads=0 / nr=0 / decimate=0 / interlaced=0 / bluray_compat=0 / constrained_intra=0 / bframes=11 / b_pyramid=2 / b_adapt=2 / b_bias=0 / direct=3 / weightb=1 / open_gop=0 / weightp=2 / keyint=250 / keyint_min=23 / scenecut=40 / intra_refresh=0 / rc_lookahead=150 / rc=2pass / mbtree=1 / bitrate=3008 / ratetol=1.0 / qcomp=0.75 / qpmin=0 / qpmax=69 / qpstep=4 / cplxblur=20.0 / qblur=0.5 / vbv_maxrate=40000 / vbv_bufsize=30000 / nal_hrd=none / ip_ratio=1.40 / aq=2:0.80 / zones=109705,119052,q=35
Language : English
Matrix coefficients : BT.709-5, BT.1361, IEC 61966-2-4 709, SMPTE RP177

Audio #1
ID : 2
Format : AC-3
Format/Info : Audio Coding 3
Mode extension : CM (complete main)
Codec ID : A_AC3
Duration : 1h 22mn
Bit rate mode : Constant
Bit rate : 384 Kbps
Channel(s) : 6 channels
Channel positions : Front: L C R, Side: L R, LFE
Sampling rate : 48.0 KHz
Bit depth : 16 bits
Compression mode : Lossy
Stream size : 227 MiB (10%)
Title : DUB @ R5
Language : Russian

Audio #2
ID : 3
Format : AC-3
Format/Info : Audio Coding 3
Mode extension : CM (complete main)
Codec ID : A_AC3
Duration : 1h 22mn
Bit rate mode : Constant
Bit rate : 384 Kbps
Channel(s) : 6 channels
Channel positions : Front: L C R, Side: L R, LFE
Sampling rate : 48.0 KHz
Bit depth : 16 bits
Compression mode : Lossy
Stream size : 227 MiB (10%)
Title : ORG
Language : Finnish

Text #1
ID : 4
Format : UTF-8
Codec ID : S_TEXT/UTF8
Codec ID/Info : UTF-8 Plain Text
Language : Russian

Text #2
ID : 5
Format : UTF-8
Codec ID : S_TEXT/UTF8
Codec ID/Info : UTF-8 Plain Text
Language : Ukrainian

Text #3
ID : 6
Format : UTF-8
Codec ID : S_TEXT/UTF8
Codec ID/Info : UTF-8 Plain Text
Language : English

pb.wtf



Скачать Санта на продажу через торрент http://pic.kartinco.top/images/6/xt32j.jpg Скачать фильм Санта на продажу через торрент бесплантно в хорошем качестве Описание: Это фильм для тех, кто думает, что он уже не верит в Санта Клауса. Далеко в заснеженных горах Лапландии, в ущелье на глубине 486 ... 10 10 10
Info! Золотая раздача, скачанное не засчитывается.
Торрент: Зарегистрирован [2014-01-06 08:52] · скачан: 97 раз
Статус: √ проверено
Размер: 2.18 GB
Как cкачать? Как скачать Санта на продажу через торрент | qTorrent

% Раздел Тема Автор DL S | L
Фильмы 2010 [ 1.37 GB ] Санта на продажу / Rare Exports [2010 DVDRip лицензия] SD Скачать
1 | 0
Фильмы 2010 [ 1.37 GB ] Санта на продажу / Rare Exports [2010 HDRip лицензия] SD Скачать
1 | 0
Фильмы 2010 [ 702 MB ] Санта на продажу / Rare Exports [2010 DVDRip лицензия] Lil Badun Скачать
1 | 0

28-11-2019 20:33  

Отключить всю рекламу на сайте

06-01-2014 10:11 Санта на продажу Скачать торрент  

прикольный фильм:)pb.wtf



07-01-2014 13:00 Санта на продажу Скачать торрент  

нет в фильме ничего прикольного . не качайте этот анус .pb.wtf



    Дорогой пользователь! Огромная просьба, поблагодарите релизера, оцените раздачу и оставьте свои комментарий, если Вы скачали Санта на продажу через торрент бесплатно! Внесите свою лепту в развитие PiratBit!
    Комментировать посты могут только пользователи прошедшие не сложную регистрацию
    Показать сообщения:    

    Санта на продажу через торрент
    Скачать бесплатно Санта на продажу
    Санта на продажу скачать торрент
    Санта на продажу смотреть онлайн
    Cкачать фильм Санта на продажу бесплатно
    Санта на продажу скачать торрент в хорошем качестве
    Санта на продажу смотреть онлайн бесплатно в хорошем качестве


    Вы не можете начинать темы
    Вы не можете отвечать на сообщения
    Вы не можете редактировать свои сообщения
    Вы не можете удалять свои сообщения
    Вы не можете голосовать в опросах
    Вы не можете прикреплять файлы к сообщениям
    Вы можете скачивать файлы