Наша группа ВК в очередной раз забанена мы уходим в Телеграм, присоединяйтесь!!!

Лицензия

30

iTunes

мы

iTunes

1

1 сезон

Чернобыль

iTunes

1+1

iTunes

Закатать в асфальт

8 сезон

Игра престолов

1 сезон

Ральф против интернета

ИГРА 18+

pack

ВАЖНО

!!Акция!!

Alien_RageХит недели

RePack

Resident Evil 21
pack

RePack

Metro:Exodus

!!Акция!!

Alien_Rage

RePack

fifa19

RePack

Assassins Creed: Odyssey

RePack

NEED FOR SPEED™ PAYBACK

3 сезон

9 сезон

Бесстыжие 9 сезон

Все сериалы

все сериалы на PB.wtf

RePack

FAR CRY 5
Ребята, катастрофически не хватает 2730р. для оплаты серверов за АПРЕЛЬ (всвязи с блокировками трафик упал в 3 раза), 1-2р., выручайте.
  

Элита убийц / The Killer Elite (Сэм Пекинпа / Sam Peckinpah) [1975, боевик, криминал, триллер, BDRip] [MVO] + [DVO] + [AVO] (Михалёв) pb.wtf

Элита убийц через торрент pb.wtf

Размер: 2.19 GB | Добавлен: 5 лет 4 мес. назад | Торрент скачан:47 раз
Скачать  

06-01-2014 11:47 Элита убийц Скачать торрент  

Элита убийц / The Killer Elite

Год выпуска: 1975
Страна: США
Жанр: боевик, криминал, триллер
Продолжительность: 02:03:28
Перевод №1: Профессиональный (многоголосый закадровый) [5-й канал, СПБ]
Перевод №2: Профессиональный (двухголосый закадровый) [НТВ+]
Перевод №3: Авторский (одноголосый, закадровый) [Михалёв]
Cубтитры: нет

Режиссер: Сэм Пекинпа / Sam Peckinpah
В ролях: Джеймс Каан, Роберт Дювалл, Артур Хилл, Бо Хопкинс, Мако, Бёрт Янг, Гиг Янг, Том Клэнси, Тиана Александра, Уолтер Келли, Кейт Хефлин, Сондра Блейк, Кэрол Мэллори, Джеймс Уинг Ву

Описание: Наемный убийца Джордж Хансен обманывает своего партнера Майка Локена, чем порождает у того неуемную жажду мести со всеми вытекающими из этого последствиями.
Качество видео: BDRip (исх. - 1080p The.Killer.Elite.1975.BDRemux.HDTracker )
Формат видео: AVI
Видео кодек: XviD
Аудио кодек: AC3
Видео: XviD, 720x304 (2.37:1), 23.976 fps, 1958 kbps avg
Аудио №1 : AC3, 48 kHz, 192 kbps, 2/0 (L,R) ch [MVO]
Аудио №2 : AC3, 48 kHz, 192 kbps, 2/0 (L,R) ch [DVO]
Аудио №3 : AC3, 48 kHz, 192 kbps, 2/0 (L,R) ch [AVO]

Код:

Общее
Полное имя                               : F:RTElita.Ubiyts.1975.XviD.BDRip.avi
Формат                                   : AVI
Формат/Информация                        : Audio Video Interleave
Профиль формата                          : OpenDML
Размер файла                             : 2,19 Гбайт
Продолжительность                        : 2 ч. 3 м.
Общий поток                              : 2541 Кбит/сек
Название фильма                          : Elita.Ubiyts.1975.XviD.BDRip
Режиссёр                                 : rip by Inch
Жанр                                     : Action / Crime / Thriller
Программа кодирования                    : VirtualDubMod 1.5.10.3 | www.virtualdub-fr.org || (build 2550/release)
Формат оригинала/Имя                     : The Killer Elite / 1975
Правообладатель                          : rutracker.org
Примечание                               : RusMVO + RusDVO + RusAVO[Mikhalev]
Видео
Идентификатор                            : 0
Формат                                   : MPEG-4 Visual
Профиль формата                          : Advanced Simple@L5
Параметр BVOP формата                    : 2
Параметр QPel формата                    : Нет
Параметр GMC формата                     : Без точки перехода
Параметр матрицы формата                 : Выборочная
Идентификатор кодека                     : XVID
Идентификатор кодека/Подсказка           : XviD
Продолжительность                        : 2 ч. 3 м.
Битрейт                                  : 1941 Кбит/сек
Ширина                                   : 720 пикселей
Высота                                   : 304 пикселя
Соотношение сторон                       : 2,35:1
Частота кадров                           : 23,976 кадра/сек
Цветовое пространство                    : YUV
Субдискретизация насыщенности            : 4:2:0
Битовая глубина                          : 8 бит
Тип развёртки                            : Прогрессивная
Метод сжатия                             : С потерями
Бит/(Пиксели*Кадры)                      : 0.370
Размер потока                            : 1,67 Гбайт (76%)
Библиотека кодирования                   : XviD 73
Аудио #1
Идентификатор                            : 1
Формат                                   : AC-3
Формат/Информация                        : Audio Coding 3
Расширение режима                        : CM (complete main)
Параметр Endianness формата              : Big
Идентификатор кодека                     : 2000
Продолжительность                        : 2 ч. 3 м.
Вид битрейта                             : Постоянный
Битрейт                                  : 192 Кбит/сек
Каналы                                   : 2 канала
Расположение каналов                     : Front: L R
Частота                                  : 48,0 КГц
Битовая глубина                          : 16 бит
Метод сжатия                             : С потерями
Размер потока                            : 170 Мбайт (8%)
Выравнивание                             : Разделение по промежуткам
Продолжительность промежутка             : 42  мс. (1,00 видеокадр)
Время предзагрузки промежутка            : 500  мс.
Аудио #2
Идентификатор                            : 2
Формат                                   : AC-3
Формат/Информация                        : Audio Coding 3
Расширение режима                        : CM (complete main)
Параметр Endianness формата              : Big
Идентификатор кодека                     : 2000
Продолжительность                        : 2 ч. 3 м.
Вид битрейта                             : Постоянный
Битрейт                                  : 192 Кбит/сек
Каналы                                   : 2 канала
Расположение каналов                     : Front: L R
Частота                                  : 48,0 КГц
Битовая глубина                          : 16 бит
Метод сжатия                             : С потерями
Размер потока                            : 170 Мбайт (8%)
Выравнивание                             : Разделение по промежуткам
Продолжительность промежутка             : 42  мс. (1,00 видеокадр)
Время предзагрузки промежутка            : 500  мс.
Аудио #3
Идентификатор                            : 3
Формат                                   : AC-3
Формат/Информация                        : Audio Coding 3
Расширение режима                        : CM (complete main)
Параметр Endianness формата              : Big
Идентификатор кодека                     : 2000
Продолжительность                        : 2 ч. 3 м.
Вид битрейта                             : Постоянный
Битрейт                                  : 192 Кбит/сек
Каналы                                   : 2 канала
Расположение каналов                     : Front: L R
Частота                                  : 48,0 КГц
Битовая глубина                          : 16 бит
Метод сжатия                             : С потерями
Размер потока                            : 170 Мбайт (8%)
Выравнивание                             : Разделение по промежуткам
Продолжительность промежутка             : 42  мс. (1,00 видеокадр)
Время предзагрузки промежутка            : 500  мс.

pb.wtf



Скачать Элита убийц через торрент http://i58.fastpic.ru/big/2014/0106/89/bb64e28774dd91d7d5955b1bf7a48889.jpg Скачать фильм Элита убийц через торрент бесплантно в хорошем качестве Описание: Наемный убийца Джордж Хансен обманывает своего партнера Майка Локена, чем порождает у того неуемную жажду мести со всеми ... 9.6 10 7
Info! Золотая раздача, скачанное не засчитывается.
Торрент: Зарегистрирован [2014-01-06 11:47] · скачан: 47 раз
Статус: √ проверено
Размер: 2.19 GB
Как cкачать? Как скачать Элита убийц через торрент | qTorrent

% Раздел Тема Автор DL S | L
Фильмы до 2000 г. [ 1.46 GB ] Элита убийц / Killer Elite The [1975 DVDRip] кэп Скачать
1 | 0


>> Регистрируемся здесь <<






Отзывы и комментарии о схеме читаем и пишем здесь: ---> Отзывы и комментарии о схеме

Новые благодарочки в телеграм довольных пользователей:
скриншот   скриншот   скриншот   скриншот   скриншот
    Дорогой пользователь! Огромная просьба, поблагодарите релизера, оцените раздачу и оставьте свои комментарий, если Вы скачали Элита убийц через торрент бесплатно! Внесите свою лепту в развитие PiratBit!
    Комментировать посты могут только пользователи прошедшие не сложную регистрацию
    Показать сообщения:    

    Элита убийц через торрент
    Скачать бесплатно Элита убийц
    Элита убийц скачать торрент
    Элита убийц смотреть онлайн
    Cкачать фильм Элита убийц бесплатно
    Элита убийц скачать торрент в хорошем качестве
    Элита убийц смотреть онлайн бесплатно в хорошем качестве


    Вы не можете начинать темы
    Вы не можете отвечать на сообщения
    Вы не можете редактировать свои сообщения
    Вы не можете удалять свои сообщения
    Вы не можете голосовать в опросах
    Вы не можете прикреплять файлы к сообщениям
    Вы можете скачивать файлы