Ссылка на приватное зеркало нашего сайта всего за 1$. Внимание количество ограничено!!!

2 сезон

iTunes

1 сезон

1

2 сезон

2 сезон

iTunes

1 сезон

RePack

30

Новинка

ВАЖНО

ИГРА 18+

pack

RePack

MK11
pack

Забери бонус

RePack

jed

!!Акция!!

Alien_Rage

RePack

fifa19

RePack

Assassins Creed: Odyssey

RePack

NEED FOR SPEED™ PAYBACK

4 сезон

9 сезон

Бесстыжие 9 сезон

Все сериалы

все сериалы на PB.wtf

RePack

FAR CRY 5
  

Заключенный / Узник / Пленник / The Prisoner / Сезон: 1 / Серии: 1-6 из 6 (Ник Харран) [2009 г., Фантастика, триллер, драма, HDRip] MVO LostFilm pb.wtf

Заключенный через торрент pb.wtf

Размер: 4.66 GB | Добавлен: 6 лет 10 мес. назад | Торрент скачан:96 раз
Скачать  

06-01-2014 18:11 Заключенный Скачать торрент  

Заключенный / Узник / Пленник
Год выпуска: 2009
Страна: Великобритания Granada International, ITV Productions, Out of Africa Entertainment
Жанр: Фантастика, триллер, драма
Продолжительность: 6 x ~ 00:46:00
Перевод: Профессиональный (многоголосый, закадровый) LostFilm

Режиссер: Ник Харран
Продюссер: Мишель Бак, Билл Галлахер, Тревор Хопкинс
Сценарий: Билл Галлахер

Премьера в мире: 15 ноября 2009
Премьера (РФ): 23 апреля 2011





В ролях: Иэн МакКеллен, Джеймс Кэвизел, Рут Уилсон, Ленни Джеймс, Рэйчел Блейк, Джейми Кэмпбелл Бауэр, Хейли Этвелл, Сара Стюарт, Дэвид Батлер (IV), Лейла Энрикес, Изабелла Кэлторп, Вольфганг Вайссенштайн, Уилл Кемп, Винсент Риган, Джессика Хайнс, Лэнгли Кирквуд, Хосе Ваз, Джон Уайтели, Мэттью Вайлд, Джеффри Р. Смит, Томас Уэст, Оливер Адамс, Эшли Лопез, Джеймс Каннингэм

Описание: Человек, которого все называют «Шестой», оказывается в «Деревне» и он не помнит как попал сюда. В этом таинственном поселении у жителей номера, вместо имён, они не помнят ничего о своей прошлой жизни и находятся под постоянным наблюдением. Не зная кому доверять, «Шестой» пытается узнать правду об этом загадочном месте, выяснить причину его появления в «Деревне» и самое главное — найти способ сбежать отсюда.

Доп. информация:
Содержание
1. Arrival / Прибытие
2. Harmony / Гармония
3. Anvil / Наковальня
4. Darling / Любимая
5. Schizoid / Шизоид
6. Checkmate / Шах и мат
Качество: HDRip
Формат: AVI
Видео кодек: XviD
Аудио кодек: AC3
Видео: Xvid 720x400 25.00fps 2 000 Kbps
Аудио#1: Dolby AC3 48000Hz stereo 192kbps Russian
Аудио#2: Dolby AC3 48000Hz stereo 192kbps English
Релиз от: pigas1984





General
Complete name : E:Uznik.(1-6.serii.iz.6).2009.XviD.HDRipUznik.(1.seriya.iz.6).2009.XviD.HDRip.avi
Format : AVI
Format/Info : Audio Video Interleave
File size : 791 MiB
Duration : 46mn 7s
Overall bit rate : 2 398 Kbps
Writing application : VirtualDubMod 1.5.10.2 (build 2542/release)
Writing library : VirtualDubMod build 2542/release

Video
ID : 0
Format : MPEG-4 Visual
Format profile : Advanced Simple@L5
Format settings, BVOP : 1
Format settings, QPel : No
Format settings, GMC : No warppoints
Format settings, Matrix : Default (MPEG)
Codec ID : XVID
Codec ID/Hint : XviD
Duration : 46mn 7s
Bit rate : 2 000 Kbps
Width : 720 pixels
Height : 400 pixels
Display aspect ratio : 16:9
Frame rate : 25.000 fps
Color space : YUV
Chroma subsampling : 4:2:0
Bit depth : 8 bits
Scan type : Progressive
Compression mode : Lossy
Bits/(Pixel*Frame) : 0.278
Stream size : 660 MiB (83%)
Writing library : XviD 63

Audio #1
ID : 1
Format : AC-3
Format/Info : Audio Coding 3
Mode extension : CM (complete main)
Codec ID : 2000
Duration : 46mn 7s
Bit rate mode : Constant
Bit rate : 192 Kbps
Channel(s) : 2 channels
Channel positions : Front: L R
Sampling rate : 48.0 KHz
Bit depth : 16 bits
Compression mode : Lossy
Stream size : 63.3 MiB (8%)
Alignment : Split accross interleaves
Interleave, duration : 40 ms (1.00 video frame)
Interleave, preload duration : 500 ms

Audio #2
ID : 2
Format : AC-3
Format/Info : Audio Coding 3
Mode extension : CM (complete main)
Codec ID : 2000
Duration : 46mn 7s
Bit rate mode : Constant
Bit rate : 192 Kbps
Channel(s) : 2 channels
Channel positions : Front: L R
Sampling rate : 48.0 KHz
Bit depth : 16 bits
Compression mode : Lossy
Stream size : 63.3 MiB (8%)
Alignment : Split accross interleaves
Interleave, duration : 40 ms (1.00 video frame)
Interleave, preload duration : 500 ms


Заключенный / Узник / Пленник скачать торрент


pb.wtf



Скачать Заключенный через торрент http://pic.kartinco.top/images/6/7s6fj.jpg Скачать фильм Заключенный через торрент бесплантно в хорошем качестве Описание: Человек, которого все называют «Шестой», оказывается в «Деревне» и он не помнит как попал сюда. В этом таинственном поселении у ... 10 10 6
Info! Золотая раздача, скачанное не засчитывается.
Торрент: Зарегистрирован [2014-01-06 18:11] · скачан: 96 раз
Статус: √ проверено
Размер: 4.66 GB
Как cкачать? Как скачать Заключенный через торрент | qTorrent

28-11-2019 20:33  

Отключить всю рекламу на сайте

    Дорогой пользователь! Огромная просьба, поблагодарите релизера, оцените раздачу и оставьте свои комментарий, если Вы скачали Заключенный через торрент бесплатно! Внесите свою лепту в развитие PiratBit!
    Комментировать посты могут только пользователи прошедшие не сложную регистрацию
    Показать сообщения:    

    Заключенный через торрент
    Скачать бесплатно Заключенный
    Заключенный скачать торрент
    Заключенный смотреть онлайн
    Cкачать фильм Заключенный бесплатно
    Заключенный скачать торрент в хорошем качестве
    Заключенный смотреть онлайн бесплатно в хорошем качестве


    Вы не можете начинать темы
    Вы не можете отвечать на сообщения
    Вы не можете редактировать свои сообщения
    Вы не можете удалять свои сообщения
    Вы не можете голосовать в опросах
    Вы не можете прикреплять файлы к сообщениям
    Вы можете скачивать файлы