2 сезон

iTunes

1 сезон

1

iTunes

iTunes

iTunes

1 сезон

RePack

30

ИГРА 18+

pack

ВАЖНО

!!Акция!!

Alien_RageХит недели

RePack

MK11
pack

Забери бонус

RePack

jed

!!Акция!!

Alien_Rage

RePack

fifa19

RePack

Assassins Creed: Odyssey

RePack

NEED FOR SPEED™ PAYBACK

4 сезон

9 сезон

Бесстыжие 9 сезон

Все сериалы

все сериалы на PB.wtf

RePack

FAR CRY 5
  

Город тьмы / Темный город (Режиссерская версия) / Dark City (Director's cut) (Алекс Пройс) [1998 г., Фантастика, триллер, BDRip 720p, Профессиональный многоголосый] pb.wtf

Город тьмы через торрент pb.wtf

Размер: 4.37 GB | Добавлен: 6 лет 9 мес. назад | Торрент скачан:227 раз
Скачать  

06-01-2014 21:49 Город тьмы Скачать торрент  

Город тьмы / Темный город (Режиссерская версия) / Dark City (Director's cut)
Год выпуска: 1998
Страна: Австралия, США
Жанр: Фантастика, триллер,
Продолжительность: 01:51:43
Перевод: Профессиональный многоголосый закадровый
Субтитры: русские, английские
Режиссер: Алекс Пройс
В ролях: Рафус Сьюэлл, Уильям Харт, Каифер Сазерлэнд, Дженнифер Коннелли, Ричард О`Брайан, Ян Ричардсон, Брюс Спэнс,
Убийцу, не помнящего своего имени и прошлого, преследует полицейский инспектор Фрэнк Бастед. Его ищет жена Эмма, за ним охотятся чужаки, а он по обрывкам воспоминаний пытается разобраться в том, что происходит.
Рабочие названия картины — «Темная империя» (Dark Empire) и «Темный мир» (Dark World).
Многие декорации этой картины, включая крыши, здания и другие натуры, использовались при съемке фильма «Матрица» (The Matrix, 1999).
Мистера Слипа сыграли близнецы, девочка Сатья Гумберт (Satya Gumbert) и ее брат Ноа Гумберт (Noah Gumbert).
Фильм снимался в Лос-Анджелесе (США, штат Калифорния) и Сиднее (Австралия, штат Новый Южный Уэльс).
Начало съемок — 12 августа 1996 года.
Полная версия фильм имеет продолжительность 111 минут.
Алекс Пройас начал работать над сценарием в 1990 году.
Некоторые эпизоды были сдвинуты, некоторые добавлены, некоторые удалены.
В некоторых эпизодах была изменена музыка.
В начале фильма нет повествовавания и вида города. Камера из космоса опускается к доктору Шреберу, а затем к Джону, просыпающемуся в ванной.
Изменена музыка в обеих песнях, которые поёт Эмма.
Добавлен эпизод, когда Джон замечает свои спиралевидные отпечатки перед тем, как идёт в кафе.
Добавлен эпизод, в котором Бамстед получает фото спиралевидных отпечатков пальцев Джона, снятых с проститутки.
У проститутки Мэй теперь есть маленькая дочка. Джон уходит из квартиры, когда замечает её.
Удлинён эпизод, в котором Эмма приходит заявить о пропаже мужа.
Удлинён первый эпизод в логове Чужих.
В бане, после разговора с доктором Шребером, мистер Хэнд создаёт лестницу для бассейна.
Перед эпизодом первой настройки добавлен разговор мужа с женой, которые после настройки становятся богатыми.
Когда мы во второй раз видим в офисе Бамстеда с аккордеоном, он смотрит внуть кофейной чашки и видит внутри вращающуюся спираль. Затем он бросает взгляд на фото спиралевидных отпечатков Джона.
Немного удлинён эпизод, в котором мистеру Хэнду вводят воспоминания Джона.
Когда Эмма и Бамстед находят тело проститутки Мэй, они также находят её дочь, прячущуюся под кроватью. У дочери они видят рисунок Чужих, убивающих ножами её мать.
Когда доктор Шребер отказывается показать дорогу к океану, Джон пытает его при помощи способности к настройке.
Дополнительный эпизод с Бамстедом, летящим через космос.
Когда Джон спускается в логово Чужих, один из них осматривает его, видит спиралевидные отпечатки пальцев и сообщает всем о том, что Джон эволюционировал.
Удлинена битва разумов в конце фильма.
После того, как в мистера Бука вонзают нож, он вращается вокруг башни и из него исходит голубой туман.
Общее
Уникальный идентификатор : 239871909393014955174423831320200437086 (0xB475A6394B3A76A5A30449D290135D5E)
Полное имя : E:Фильмы720pDark City.Directors Cut.1998.BD.Rip.720p.h264.Rus.Eng.mkv
Формат : Matroska
Версия формата : Version 1
Размер файла : 4,37 Гбайт
Продолжительность : 1 ч. 51 м.
Общий поток : 5604 Кбит/сек
Дата кодирования : UTC 2008-12-30 12:20:27
Программа кодирования : mkvmerge v2.4.0 ('Fumbling Towards Ecstasy') built on Oct 11 2008 20:13:15
Библиотека кодирования : libebml v0.7.7 + libmatroska v0.8.1

Видео
Идентификатор : 1
Формат : AVC
Формат/Информация : Advanced Video Codec
Профиль формата : High@L4.1
Параметр CABAC формата : Да
Параметр ReFrames формата : 12 кадров
Идентификатор кодека : V_MPEG4/ISO/AVC
Продолжительность : 1 ч. 51 м.
Битрейт : 4397 Кбит/сек
Ширина : 1280 пикселей
Высота : 544 пикселя
Соотношение сторон : 2,35:1
Режим частоты кадров : Постоянный
Частота кадров : 23,976 кадра/сек
Цветовое пространство : YUV
Субдискретизация насыщенности : 4:2:0
Битовая глубина : 8 бит
Тип развёртки : Прогрессивная
Бит/(Пиксели*Кадры) : 0.263
Размер потока : 3,35 Гбайт (77%)
Библиотека кодирования : x264 core 65 r1057M 5f8a149
Настройки программы : cabac=1 / ref=12 / deblock=1:-3:-3 / analyse=0x3:0x113 / me=umh / subme=9 / psy_rd=1.0:0.0 / mixed_ref=1 / me_range=32 / chroma_me=1 / trellis=0 / 8x8dct=1 / cqm=2 / deadzone=6,4 / chroma_qp_offset=-2 / threads=6 / nr=0 / decimate=1 / mbaff=0 / bframes=3 / b_pyramid=1 / b_adapt=2 / b_bias=0 / direct=3 / wpredb=1 / keyint=240 / keyint_min=24 / scenecut=40(pre) / rc=2pass / bitrate=4397 / ratetol=1.0 / qcomp=0.60 / qpmin=10 / qpmax=51 / qpstep=4 / cplxblur=20.0 / qblur=0.5 / ip_ratio=1.40 / pb_ratio=1.30 / aq=1:1.00
Язык : English
Default : Да
Forced : Нет

Аудио #1
Идентификатор : 2
Формат : AC-3
Формат/Информация : Audio Coding 3
Расширение режима : CM (complete main)
Параметр Endianness формата : Big
Идентификатор кодека : A_AC3
Продолжительность : 1 ч. 51 м.
Вид битрейта : Постоянный
Битрейт : 448 Кбит/сек
Каналы : 6 каналов
Расположение каналов : Front: L C R, Side: L R, LFE
Частота : 48,0 КГц
Битовая глубина : 16 бит
Метод сжатия : С потерями
Размер потока : 358 Мбайт (8%)
Заголовок : AC3 5.1 448 kbps
Язык : Russian
Default : Да
Forced : Нет

Аудио #2
Идентификатор : 3
Формат : DTS
Формат/Информация : Digital Theater Systems
Режим : 16
Параметр Endianness формата : Big
Идентификатор кодека : A_DTS
Продолжительность : 1 ч. 51 м.
Вид битрейта : Постоянный
Битрейт : 755 Кбит/сек
Каналы : 6 каналов
Расположение каналов : Front: L C R, Side: L R, LFE
Частота : 48,0 КГц
Битовая глубина : 24 бит
Метод сжатия : С потерями
Размер потока : 603 Мбайт (13%)
Заголовок : DTS 5.1 768 kbps
Язык : English
Default : Нет
Forced : Нет

Текст #1
Идентификатор : 4
Формат : UTF-8
Идентификатор кодека : S_TEXT/UTF8
Идентификатор кодека/Информация : UTF-8 Plain Text
Заголовок : Kinomania
Язык : Russian
Default : Нет
Forced : Нет

Текст #2
Идентификатор : 5
Формат : UTF-8
Идентификатор кодека : S_TEXT/UTF8
Идентификатор кодека/Информация : UTF-8 Plain Text
Заголовок : Russian2
Язык : Russian
Default : Нет
Forced : Нет

Текст #3
Идентификатор : 6
Формат : UTF-8
Идентификатор кодека : S_TEXT/UTF8
Идентификатор кодека/Информация : UTF-8 Plain Text
Язык : English
Default : Нет
Forced : Нет

Качество: BDRip 720p Формат: MKV Видео кодек: H.264 Аудио кодек: AC3, DTS
Видео: 1280x544, 4397 kbps, 23.976 fps, 0,263 bpp
Аудио#1: Русский AC3 5.1, 48 KHz, 448 Kbps
Аудио#2: Английский DTS 5.1, 48 KHz, 768 Kbps
скриншот   скриншот   скриншот  
pb.wtf



Скачать Город тьмы через торрент http://pic.kartinco.top/images/6/nbele.jpg Скачать фильм Город тьмы через торрент бесплантно в хорошем качестве В ролях: Рафус Сьюэлл, Уильям Харт, Каифер Сазерлэнд, Дженнифер Коннелли, Ричард О`Брайан, Ян Ричардсон, Брюс Спэнс, Убийцу, не помнящего ... 9.8 10 16
Info! Золотая раздача, скачанное не засчитывается.
Торрент: Зарегистрирован [2014-01-06 21:49] · скачан: 227 раз
Статус: √ проверено
Размер: 4.37 GB
Как cкачать? Как скачать Город тьмы через торрент | qTorrent

% Раздел Тема Автор DL S | L
Фильмы (BDRip, HDrip-AVC) (48-60 fps) [ 3.82 GB ] Темный город / Город тьмы / Dark City [Director's cut] [1998 BDRip-AVC 60fps от R.G. HD-Films] MVO -Lexx- Скачать
1 | 0
Фильмы [HD 720p, 1080p] (Хороший звук DUB, MVO) [ 8.27 GB ] Темный город / Город тьмы / Dark City [Director's cut] [1998 BDRip 1080p] 2xMVO + AVO -Lexx- Скачать
1 | 0

28-11-2019 20:33  

Отключить всю рекламу на сайте

07-01-2014 01:05 Город тьмы Скачать торрент  

Хороший фильмpb.wtf



    Дорогой пользователь! Огромная просьба, поблагодарите релизера, оцените раздачу и оставьте свои комментарий, если Вы скачали Город тьмы через торрент бесплатно! Внесите свою лепту в развитие PiratBit!
    Комментировать посты могут только пользователи прошедшие не сложную регистрацию
    Показать сообщения:    

    Город тьмы через торрент
    Скачать бесплатно Город тьмы
    Город тьмы скачать торрент
    Город тьмы смотреть онлайн
    Cкачать фильм Город тьмы бесплатно
    Город тьмы скачать торрент в хорошем качестве
    Город тьмы смотреть онлайн бесплатно в хорошем качестве


    Вы не можете начинать темы
    Вы не можете отвечать на сообщения
    Вы не можете редактировать свои сообщения
    Вы не можете удалять свои сообщения
    Вы не можете голосовать в опросах
    Вы не можете прикреплять файлы к сообщениям
    Вы можете скачивать файлы