Ссылка на приватное зеркало нашего сайта всего за 1$. Внимание количество ограничено!!!

2 сезон

iTunes

1 сезон

1

iTunes

iTunes

iTunes

1 сезон

RePack

30

ИГРА 18+

pack

ВАЖНО

!!Акция!!

Alien_RageХит недели

RePack

MK11
pack

Забери бонус

RePack

jed

!!Акция!!

Alien_Rage

RePack

fifa19

RePack

Assassins Creed: Odyssey

RePack

NEED FOR SPEED™ PAYBACK

4 сезон

9 сезон

Бесстыжие 9 сезон

Все сериалы

все сериалы на PB.wtf

RePack

FAR CRY 5
  

Королевство викингов / Vikingdom (Исри Крю) [2013 г., Приключения, фэнтези, боевик, BDRip 720p, Профессиональный многоголосый] / BaibaKo| pb.wtf

Королевство викингов через торрент pb.wtf

Размер: 6.52 GB | Добавлен: 6 лет 9 мес. назад | Торрент скачан:357 раз
Скачать  

07-01-2014 02:24 Королевство викингов Скачать торрент  

Королевство викингов / Vikingdom
Год выпуска: 2013
Страна: США, Малайзия, KRU Studios
Жанр: Приключения, фэнтези, боевик,
Продолжительность: 01:54:34
Перевод: Профессиональный многоголосый| BaibaKo|
Субтитры: Румынские, английские

Режиссер: Исри Крю
Продюссер: Ширин М. Хашим, Шакед Беренсон, Патрик Эвальд
Сценарий: Джеймс Койн

Бюджет: $15 600 000
Премьера в мире: 12 сентября 2013

IMDB 3.80 (1139)


В ролях: Доминик Пёрселл, Наташа Мальте, Крэйг Фэйрбрасс, Джон Фу, Конан Стивенс, Джесси Мосс, Теган Мосс, Патрик Мюррэй, Байрон Гибсон, Тревор Коппола,

Описание: Среди древних викингов бытовала старая легенда о существовании волшебного молота бога Тора чрезвычайно легкого, но вместе с тем смертоносного оружия, способного поразить в бою любого противника. Согласно этой легенде, молот после метания во врага самостоятельно возвращается в руку своего хозяина. Это ли не идеальное орудие убийства? Молот Тора был мечтой всех знающих о нем древних викингов. И лишь один из них, один из сильнейших представителей викингов все же решился найти это божественное наследие. Этому отважному викингу придется взять в руки свой меч, чтобы сразиться с злобным созданием невообразимой силы.

Качество: BDRip 720p
Формат: MKV
Видео кодек: AVC
Аудио кодек: DTS, AC3
Видео: MPEG-4 AVC, 7.0 Мбит/с, 1280х690(1,85:1), 23.976 кадр/с
Аудио#1: Русский ( AC-3, 6 ch, 384 Кбит/с, 48.0 КГц, 16 бит )
Аудио#2: Английский ( DTS, 6 ch, 768 Кбит/с, 48.0 КГц, 16 бит )
скриншот  скриншот  скриншот  





Общее
Уникальный идентификатор : 213002385936845290665033525096335558244 (0xA03EC46FC0001859ACDFB474B3284664)
Полное имя : E:Vikingdom.2013.720p.BluRay.x264.Rus.Eng.Subs-WiKi.mkv
Формат : Matroska
Версия формата : Version 2
Размер файла : 6,52 Гбайт
Продолжительность : 1 ч. 54 м.
Общий поток : 8148 Кбит/сек
Дата кодирования : UTC 2013-12-29 17:52:00
Программа кодирования : mkvmerge v4.9.1 ('Ich will') built on Jul 11 2011 23:53:15
Библиотека кодирования : libebml v1.2.1 + libmatroska v1.1.1

Видео
Идентификатор : 1
Формат : AVC
Формат/Информация : Advanced Video Codec
Профиль формата : High@L4.1
Параметр CABAC формата : Да
Параметр ReFrames формата : 9 кадров
Идентификатор кодека : V_MPEG4/ISO/AVC
Продолжительность : 1 ч. 54 м.
Битрейт : 7000 Кбит/сек
Ширина : 1280 пикселей
Высота : 690 пикселей
Соотношение сторон : 1,85:1
Режим частоты кадров : Постоянный
Частота кадров : 23,976 кадра/сек
Цветовое пространство : YUV
Субдискретизация насыщенности : 4:2:0
Битовая глубина : 8 бит
Тип развёртки : Прогрессивная
Бит/(Пиксели*Кадры) : 0.331
Размер потока : 5,47 Гбайт (84%)
Библиотека кодирования : x264 core 136 r2348+704+51 d1baef6 tMod [8-bit@all X86_64]
Настройки программы : cabac=1 / ref=9 / deblock=1:-2:-2 / analyse=0x3:0x133 / me=umh / subme=11 / psy=1 / fade_compensate=0.00 / psy_rd=1.05:0.10 / mixed_ref=1 / me_range=32 / chroma_me=1 / trellis=2 / 8x8dct=1 / cqm=0 / deadzone=21,11 / fast_pskip=0 / chroma_qp_offset=-3 / threads=12 / lookahead_threads=2 / sliced_threads=0 / nr=0 / decimate=0 / interlaced=0 / bluray_compat=0 / constrained_intra=0 / fgo=0 / bframes=8 / b_pyramid=2 / b_adapt=2 / b_bias=0 / direct=3 / weightb=1 / open_gop=0 / weightp=2 / keyint=250 / keyint_min=23 / scenecut=40 / intra_refresh=0 / rc=2pass / mbtree=0 / bitrate=7000 / ratetol=1.0 / qcomp=0.75 / qpmin=0:0:0 / qpmax=69:69:69 / qpstep=4 / cplxblur=20.0 / qblur=0.5 / ip_ratio=1.40 / pb_ratio=1.30 / aq=3:0.80 / aq-sensitivity=10.00 / aq-factor=1.00:1.00:1.00 / aq2=0 / aq3=0
Язык : English
Default : Да
Forced : Нет
Коэффициенты матрицы : BT.709

Аудио #1
Идентификатор : 2
Формат : AC-3
Формат/Информация : Audio Coding 3
Расширение режима : CM (complete main)
Параметр Endianness формата : Big
Идентификатор кодека : A_AC3
Продолжительность : 1 ч. 54 м.
Вид битрейта : Постоянный
Битрейт : 384 Кбит/сек
Каналы : 6 каналов
Расположение каналов : Front: L C R, Side: L R, LFE
Частота : 48,0 КГц
Битовая глубина : 16 бит
Метод сжатия : С потерями
Размер потока : 315 Мбайт (5%)
Язык : Russian
Default : Да
Forced : Нет

Аудио #2
Идентификатор : 3
Формат : DTS
Формат/Информация : Digital Theater Systems
Режим : 16
Параметр Endianness формата : Big
Идентификатор кодека : A_DTS
Продолжительность : 1 ч. 54 м.
Вид битрейта : Постоянный
Битрейт : 768 Кбит/сек
Каналы : 6 каналов
Расположение каналов : Front: L C R, Side: L R, LFE
Частота : 48,0 КГц
Битовая глубина : 16 бит
Метод сжатия : С потерями
Размер потока : 629 Мбайт (9%)
Язык : English
Default : Нет
Forced : Нет

Текст #1
Идентификатор : 4
Формат : UTF-8
Идентификатор кодека : S_TEXT/UTF8
Идентификатор кодека/Информация : UTF-8 Plain Text
Язык : Romanian
Default : Нет
Forced : Нет

Текст #2
Идентификатор : 5
Формат : UTF-8
Идентификатор кодека : S_TEXT/UTF8
Идентификатор кодека/Информация : UTF-8 Plain Text
Язык : English
Default : Нет
Forced : Нет

Меню
00:00:00.000 : en:00:00:00.000
00:09:17.182 : en:00:09:17.182
00:20:31.147 : en:00:20:31.147
00:30:28.493 : en:00:30:28.493
00:39:43.006 : en:00:39:43.006
00:48:20.397 : en:00:48:20.397
00:58:42.227 : en:00:58:42.227
01:07:43.851 : en:01:07:43.851
01:16:24.747 : en:01:16:24.747
01:23:18.327 : en:01:23:18.327
01:33:51.209 : en:01:33:51.209
01:43:50.724 : en:01:43:50.724


Королевство викингов скачать торрент


pb.wtf



Скачать Королевство викингов через торрент http://pic.kartinco.top/images/6/8p3b5.jpg Скачать фильм Королевство викингов через торрент бесплантно в хорошем качестве Описание: Среди древних викингов бытовала старая легенда о существовании волшебного молота бога Тора чрезвычайно легкого, но вместе с тем ... 9.9 10 14
Info! Золотая раздача, скачанное не засчитывается.
Торрент: Зарегистрирован [2014-01-07 02:24] · скачан: 357 раз
Статус: √ проверено
Размер: 6.52 GB
Как cкачать? Как скачать Королевство викингов через торрент | qTorrent

% Раздел Тема Автор DL S | L
Фильмы 2013 [DVDrip, WEB-DLRip, HDrip] [ 1.46 GB ] Королевство викингов / Vikingdom [2013 Малайзия WEB-DLRip [BaibaKo] Ворон Скачать
1 | 0

28-11-2019 20:33  

Отключить всю рекламу на сайте

07-01-2014 07:41 Королевство викингов Скачать торрент  

На втором скрине очевидно нечто подобное Депардье... ну и Патрик Мюррэй, Байрон Гибсон, Тревор Коппола - судя по фамилиям вероятные сынки известных актеров..

Малайзия. Не смотрел, но осужда...очень уж антураж напоминает Asylum sarcasticpb.wtf



12-01-2014 11:57 Королевство викингов Скачать торрент  

Вобшэм вердикт...Павлин спасибо за широкий экран, приятно было смотреть на 42...
Если читать сюжет (например в книжке) то очень интересный и затягивает.
Но экранизация - первая половина бездарность, вторая с пивом потянет (пришлось 2 литры выпить)...
Видно "Бюджет: $15 600 000" не хватило, спецэффекты вобшэ молчу - уровня 80-х когда "Конан-Варвар" с Арни снимали. Постановка - на полумоментах обрывы на другие эпизоды, как в дешёвом фильме в прямом смысле, Майкла Дудикова не хватало. Понравился только конец - а именно поворот сюжетной линии, игра актёров чё-то среднее...Все позитивные моменты с3,14жжены с сериала "Викинги", фильмов "300 спартанцев" (экшены) и т.п. - это нормально т.к. это приятно смотреть, но все сделано руками таджиков, увы и ах....А такой фильм МОГ БЫ быть...

ПС: Пёрселл неплохо сыграл, а актёр "Тор-а" внебрачный брат фронтмена "Amorphis" :rofle:
  pb.wtf



    Дорогой пользователь! Огромная просьба, поблагодарите релизера, оцените раздачу и оставьте свои комментарий, если Вы скачали Королевство викингов через торрент бесплатно! Внесите свою лепту в развитие PiratBit!
    Комментировать посты могут только пользователи прошедшие не сложную регистрацию
    Показать сообщения:    

    Королевство викингов через торрент
    Скачать бесплатно Королевство викингов
    Королевство викингов скачать торрент
    Королевство викингов смотреть онлайн
    Cкачать фильм Королевство викингов бесплатно
    Королевство викингов скачать торрент в хорошем качестве
    Королевство викингов смотреть онлайн бесплатно в хорошем качестве


    Вы не можете начинать темы
    Вы не можете отвечать на сообщения
    Вы не можете редактировать свои сообщения
    Вы не можете удалять свои сообщения
    Вы не можете голосовать в опросах
    Вы не можете прикреплять файлы к сообщениям
    Вы можете скачивать файлы