2 сезон

iTunes

MVO

1

2 сезон

iTunes

iTunes

1 сезон

RePack

30

Ultimate

ВАЖНО

ИГРА 18+

pack

RePack

MK11
pack

Легкие деньги

RePack

jed

RePack

fifa19

RePack

RDR2

RePack

NEED FOR SPEED™ PAYBACK

4 сезон

9 сезон

Бесстыжие 9 сезон

Все сериалы

все сериалы на PB.wtf

RePack

FAR CRY 5

Anonymous, добрый день, мы не успеваем собрать деньги на оплату серверов за декабрь и январь, помогите нам пожалуйста в это трудное время. В качестве благодарности мы отключим Вам всю рекламу на сайте (укажите свой ник в строку Ваше имя)!

×
  
Magnet ссылка

Экспедиция на Марс / BBC. Mission to Mars: A Horizon Special (Грэм МакОли / Graeme McAulay) [2012, документальный, HDTVRip] pb.wtf

Экспедиция на Марс через торрент pb.wtf

Размер: 931 MB | Добавлен: 7 лет назад | Торрент скачан:147 раз
Скачать  

07-01-2014 18:28 Экспедиция на Марс Скачать торрент  

Экспедиция на Марс / Mission to Mars

Год выпуска: 2012
Страна: Великобритания
Студия: BBC
Жанр: документальный
Продолжительность: 00:59:07
Перевод: Профессиональный (двухголосый закадровый) - Видеофильм ТВ
Субтитры: русские (на неозвученные места)

Режиссер: Грэм МакОли / Graeme McAulay

Описание: 26 ноября 2011 года состоялся запуск к Марсу марсохода третьего поколения «Кьюрио́сити», его мягкая посадка на поверхность Марса осуществилась 6 августа 2012.
В этом фильме мы проникним за кулисы НАСА в то время, когда они ведут обратный отсчет времени до посадки марсохода стоимостью в 2,5 миллиарда долларов на поверхность Марса.

Доп. информация: В неозвученных местах присутствуют русские субтитры. Субтитры перевёл panzerwaffe044.



Качество: HDTVRip
Формат:AVI
Видео кодек: XviD
Аудио кодек: AC-3
Видео: 16:9, 2000 Кбит/сек, 720x400, 25,000 кадров/сек
Аудио: AC-3, 2 канала, 192 Кбит/сек, 48,0 КГц
Общее
Полное имя : D:BBC.Horizon.2012.Mission.to.Mars.HDTV.avi
Формат : AVI
Формат/Информация : Audio Video Interleave
Размер файла : 931 Мбайт
Продолжительность : 59 м.
Общий поток : 2201 Кбит/сек
Программа кодирования : VirtualDubMod 1.5.10.3 | www.virtualdub-fr.org || (build 2550/release)
Библиотека кодирования : VirtualDubMod build 2550/release

Видео
Идентификатор : 0
Формат : MPEG-4 Visual
Профиль формата : Advanced Simple@L5
Параметр BVOP формата : 2
Параметр QPel формата : Нет
Параметр GMC формата : Без точки перехода
Параметр матрицы формата : Default (H.263)
Режим смешивания : Сжатый битовый поток
Идентификатор кодека : XVID
Идентификатор кодека/Подсказка : XviD
Продолжительность : 59 м.
Битрейт : 2000 Кбит/сек
Ширина : 720 пикселей
Высота : 400 пикселей
Соотношение сторон : 16:9
Частота кадров : 25,000 кадров/сек
Цветовое пространство : YUV
Субдискретизация насыщенности : 4:2:0
Битовая глубина : 8 бит
Тип развёртки : Прогрессивная
Метод сжатия : С потерями
Бит/(Пиксели*Кадры) : 0.278
Размер потока : 846 Мбайт (91%)
Библиотека кодирования : XviD 1.2.1 (UTC 2008-12-04)

Аудио
Идентификатор : 1
Формат : AC-3
Формат/Информация : Audio Coding 3
Расширение режима : CM (complete main)
Параметр Endianness формата : Big
Идентификатор кодека : 2000
Продолжительность : 59 м.
Вид битрейта : Постоянный
Битрейт : 192 Кбит/сек
Каналы : 2 канала
Расположение каналов : Front: L R
Частота : 48,0 КГц
Битовая глубина : 16 бит
Метод сжатия : С потерями
Размер потока : 81,2 Мбайт (9%)
Выравнивание : Разделение по промежуткам
Продолжительность промежутка : 40 мс. (1,00 видеокадр)
Время предзагрузки промежутка : 500 мс.
pb.wtf



Скачать Экспедиция на Марс через торрент https://pic.kartinco.top/images/6/a8qhh.jpg Скачать фильм Экспедиция на Марс через торрент бесплантно в хорошем качестве Описание: 26 ноября 2011 года состоялся запуск к Марсу марсохода третьего поколения «Кьюрио́сити», его мягкая посадка на поверхность Марса ... 8.7 10 13
Info! Золотая раздача, скачанное не засчитывается.
Торрент: Зарегистрирован [2014-01-07 18:28] · скачан: 147 раз
Статус: √ проверено
Размер: 931 MB
Как cкачать? Как скачать Экспедиция на Марс через торрент | UTorrent

28-11-2019 20:33  

Отключить всю рекламу на сайте

07-01-2014 18:47 Экспедиция на Марс Скачать торрент  

уважаемые товарищи, раздаю со скорость в среднем 2 мегабита , но в клиенте вижу что некоторые товорищи зажимают скорость , чтобы избежать этого все мои последующие раздачи будут идти в режиме суперсид и с закрытым DHTpb.wtf



09-01-2014 09:01 Экспедиция на Марс Скачать торрент  

nickson-82
http://pb.wtf/topic/130637/newest#newest
На нашем трекере ЗАПРЕЩАЕТСЯ
*Размещать частные торренты с закрытым DHT и обменом пиров.pb.wtf



    Дорогой пользователь! Огромная просьба, поблагодарите релизера, оцените раздачу и оставьте свои комментарий, если Вы скачали Экспедиция на Марс через торрент бесплатно! Внесите свою лепту в развитие PiratBit!
    Комментировать посты могут только пользователи прошедшие не сложную регистрацию
    Показать сообщения:    

    Экспедиция на Марс через торрент
    Скачать бесплатно Экспедиция на Марс
    Экспедиция на Марс скачать торрент
    Экспедиция на Марс смотреть онлайн
    Cкачать фильм Экспедиция на Марс бесплатно
    Экспедиция на Марс скачать торрент в хорошем качестве
    Экспедиция на Марс смотреть онлайн бесплатно в хорошем качестве


    Вы не можете начинать темы
    Вы не можете отвечать на сообщения
    Вы не можете редактировать свои сообщения
    Вы не можете удалять свои сообщения
    Вы не можете голосовать в опросах
    Вы не можете прикреплять файлы к сообщениям
    Вы можете скачивать файлы