Ссылка на приватное зеркало нашего сайта всего за 1$. Внимание количество ограничено!!!

2 сезон

iTunes

1 сезон

1

iTunes

iTunes

iTunes

1 сезон

RePack

30

ИГРА 18+

pack

ВАЖНО

!!Акция!!

Alien_RageХит недели

RePack

MK11
pack

Забери бонус

RePack

jed

!!Акция!!

Alien_Rage

RePack

fifa19

RePack

Assassins Creed: Odyssey

RePack

NEED FOR SPEED™ PAYBACK

4 сезон

9 сезон

Бесстыжие 9 сезон

Все сериалы

все сериалы на PB.wtf

RePack

FAR CRY 5
  

Хочу замуж (Глеб Якубовский) [2013 г., Комедия, мелодрама, SatRip] pb.wtf

Хочу замуж через торрент pb.wtf

Размер: 1.37 GB | Добавлен: 6 лет 9 мес. назад | Торрент скачан:1018 раз
Скачать  

07-01-2014 19:56 Хочу замуж Скачать торрент  

Хочу замуж
Год выпуска: 2013
Страна: Россия
Жанр: Комедия, мелодрама,
Субтитры: нет
Режиссер: Глеб Якубовский
В ролях: Юлия Кадушкевич, Павел Южаков-Харланчук, Марина Денисова, Татьяна Лютаева, Андрей Фролов,
Описание:
Всего три недели есть у Вари, чтобы выйти замуж. Не просто выйти, а сначала найти, за кого. Почему же так мало времени? Из-за того, что так сошлись звезды. Именно так считает гадалка, к которой отправляется Варя по настоянию своей подруги Гали. Гадалка так подробно описывает будущего мужа Вари, что отыскать его теперь не должно составить труда. Только Галя почему-то недовольна описанием, которое дала гадалка. Может, потому, что Галя уже решила, кто должен стать избранником Вари?
Качество: SatRip
Формат: AVI
Видео кодек: XviD
Аудио кодек: MP3
Видео: XviD, 720x400, 25 fps, ~2050 Kbit/s
Аудио#1: MP3 , 48000 Hz, 2 канала, 192 kbit/s
скриншот   скриншот   скриншот  

Общее
Полное имя : D:ТорентыHochu.hamuzh.2013.SATRip.avi
Формат : AVI
Формат/Информация : Audio Video Interleave
Размер файла : 1,37 Гбайт
Продолжительность : 1 ч. 29 м.
Общий поток : 2188 Кбит/сек
Библиотека кодирования : VirtualDub build 32842/release

Видео
Идентификатор : 0
Формат : MPEG-4 Visual
Параметр BVOP формата : 1
Параметр QPel формата : Нет
Параметр GMC формата : Без точки перехода
Параметр матрицы формата : Default (H.263)
Режим смешивания : Сжатый битовый поток
Идентификатор кодека : DX50
Идентификатор кодека/Подсказка : DivX 5
Продолжительность : 1 ч. 29 м.
Битрейт : 2051 Кбит/сек
Ширина : 720 пикселей
Высота : 400 пикселей
Соотношение сторон : 16:9
Частота кадров : 25,000 кадров/сек
Цветовое пространство : YUV
Субдискретизация насыщенности : 4:2:0
Битовая глубина : 8 бит
Тип развёртки : Прогрессивная
Метод сжатия : С потерями
Бит/(Пиксели*Кадры) : 0.285
Размер потока : 1,28 Гбайт (94%)
Библиотека кодирования : DivX 6.8.5 (UTC 2009-08-20)

Аудио
Идентификатор : 1
Формат : MPEG Audio
Версия формата : Version 1
Профиль формата : Layer 3
Режим : Joint stereo
Расширение режима : MS Stereo
Идентификатор кодека : 55
Идентификатор кодека/Подсказка : MP3
Продолжительность : 1 ч. 29 м.
Вид битрейта : Постоянный
Битрейт : 128 Кбит/сек
Каналы : 2 канала
Частота : 48,0 КГц
Метод сжатия : С потерями
Размер потока : 81,9 Мбайт (6%)
Выравнивание : Разделение по промежуткам
Продолжительность промежутка : 40 мс. (1,00 видеокадр)
Время предзагрузки промежутка : 500 мс.

pb.wtf



Скачать Хочу замуж через торрент http://pic.kartinco.top/images/6/lysaj.jpg Скачать фильм Хочу замуж через торрент бесплантно в хорошем качестве Описание: Всего три недели есть у Вари, чтобы выйти замуж. Не просто выйти, а сначала найти, за кого. Почему же так мало времени? Из-за ... 8.9 10 33
Info! Золотая раздача, скачанное не засчитывается.
Торрент: Зарегистрирован [2014-01-07 20:04] · скачан: 1 018 раз
Статус: √ проверено
Размер: 1.37 GB
Как cкачать? Как скачать Хочу замуж через торрент | qTorrent

% Раздел Тема Автор DL S | L
Наши фильмы (HD, WEB-DL 720p, 1080p) [ 2.43 GB ] Хочу замуж [2013 HDTVRip 720p] PROCTOLOG Скачать
1 | 0

28-11-2019 20:33  

Отключить всю рекламу на сайте

    Дорогой пользователь! Огромная просьба, поблагодарите релизера, оцените раздачу и оставьте свои комментарий, если Вы скачали Хочу замуж через торрент бесплатно! Внесите свою лепту в развитие PiratBit!
    Комментировать посты могут только пользователи прошедшие не сложную регистрацию
    Показать сообщения:    

    Хочу замуж через торрент
    Скачать бесплатно Хочу замуж
    Хочу замуж скачать торрент
    Хочу замуж смотреть онлайн
    Cкачать фильм Хочу замуж бесплатно
    Хочу замуж скачать торрент в хорошем качестве
    Хочу замуж смотреть онлайн бесплатно в хорошем качестве


    Вы не можете начинать темы
    Вы не можете отвечать на сообщения
    Вы не можете редактировать свои сообщения
    Вы не можете удалять свои сообщения
    Вы не можете голосовать в опросах
    Вы не можете прикреплять файлы к сообщениям
    Вы можете скачивать файлы