новый адрес
Ссылка на приватное зеркало всего за 1$. Внимание количество ограничено!!!

iTunes

1+1

iTunes

мы

iTunes

1

iTunes

Чернобыль

iTunes

Ральф против интернета

Лицензия

ПШазам

Лицензия

Оно 2

Лицензия

30
pack

Вам бонус

ВАЖНО

!!Акция!!

Alien_RageХит недели

RePack

Resident Evil 21

ИГРА 18+

pack

RePack

jed

!!Акция!!

Alien_Rage

RePack

fifa19

RePack

Assassins Creed: Odyssey

RePack

NEED FOR SPEED™ PAYBACK

3 сезон

9 сезон

Бесстыжие 9 сезон

Все сериалы

все сериалы на PB.wtf

RePack

FAR CRY 5
Ребята, катастрофически не хватает 1900р. для оплаты серверов за Октябрь (всвязи с блокировками трафик упал в 3 раза), 1-2р., выручайте.
  

Слезы капали (Георгий Данелия) [1982 г., драма, DVDRip-AVC] pb.wtf

Слезы капали через торрент pb.wtf

Размер: 1.45 GB | Добавлен: 5 лет 10 мес. назад | Торрент скачан:63 раза
Скачать  

08-01-2014 07:50 Слезы капали Скачать торрент  

Слезы капали (Георгий Данелия)
Год выпуска: 1982
Страна: СССР
Жанр: драма,
Продолжительность: 01:24:00
Субтитры: Нет
Режиссер: Георгий Данелия
Сценарий: Кир Булычев, Георгий Данелия, Александр Володин
Премьера в мире: 15 января 1983


Возраст : 0+ , для любой зрительской аудитории
В ролях : Евгений Леонов (Павел Иванович Васин), Ия Саввина (жена Васина), Нина Гребешкова (Галкина), Ольга Машная (Наташа Соловьева), Александра Яковлева (невестка Васина), Борис Андреев (Николай Ваничкин), Лев Перфилов (хозяин фортепиано), Борислав Брондуков (хозяин лошади), Петр Щербаков (репортер), Нина Русланова (Дина), Ия Нинидзе (девушка, которой в глаз попал осколок зеркала), Николай Парфёнов (Кузякин)
Описание: Этот фильм начинается так же, как и сказка Андерсена "Снежная королева". Злой волшебник-тролль смастерил зеркало, в котором всё доброе исчезало, а всё плохое выглядело еще отвратительнее. Тролль и его ученики были в восторге от этого зеркала. "Только теперь, - говорили они, - можно увидеть людей такими, какие они есть на самом деле". И начали ученики злого тролля таскать зеркало по всей земле, и немало натворили зла. А потом им захотелось добраться до неба, чтобы посмеяться и там, но зеркало выпало из их рук, упало на землю и разбилось на бесчисленное множество осколков. И осколки разлетелись по всему свету. Тот, кому такой осколок попадал в глаз, начинал видеть во всём только дурное. И жить ему становилось тошно. В сказке Андерсена этот осколок попадает в глаз мальчику Каю, а в фильме - завотделом райисполкома города Зареченска Павлу Ивановичу Васину...
Качество: DVDRip-AVC
Формат: MKV
Видео кодек: AVC
Аудио кодек: AC3
Видео: 720x556@768x556 анаморф, (1.38), MPEG-4 AVC Video(х264), 2 243Kbps, 25fps, 0.224 bit/pixel
Аудио: AC3 , 224 kbps , 1 ch , 48 kHz
Рип от: tim6676
Оформление : igorutka

  • В фильме звучит песня «Друзей теряют только раз», написанная на стихи поэта и сценариста Геннадия Шпаликова, который незадолго до съёмок фильма покончил жизнь самоубийством.
    Исполняет песню Георгий Данелия.


  • Фильм был запрещён к показу за границей, полгода пролежал на полке, а потом был выпущен в ограниченный прокат.

  • Федерико Феллини однажды признался Георгию Данелия, что этот фильм самый любимый из снятых режиссёром.
  • скриншот   скриншот   скриншот   скриншот   скриншот   скриншот   скриншот   скриншот   скриншот   скриншот  


    Общее
    Уникальный идентификатор : 172123781765258179382934883831438381796 (0x817DD5A4B1C9EA7DA537AF03723C12E4)
    Полное имя : H:tempSLEZY_KAPALI .mkv
    Формат : Matroska
    Версия формата : Version 2
    Размер файла : 1,45 Гбайт
    Продолжительность : 1 ч. 24 м.
    Общий поток : 2469 Кбит/сек
    Дата кодирования : UTC 2011-07-20 05:15:32
    Программа кодирования : mkvmerge v3.4.0 ('Rapunzel') сборка от May 15 2010 09:38:20
    Библиотека кодирования : libebml v0.8.0 + libmatroska v0.9.0

    Видео
    Идентификатор : 1
    Формат : AVC
    Формат/Информация : Advanced Video Codec
    Профиль формата : High@L4.1
    Параметр CABAC формата : Да
    Параметр ReFrames формата : 10 кадров
    Идентификатор кодека : V_MPEG4/ISO/AVC
    Продолжительность : 1 ч. 24 м.
    Битрейт : 2243 Кбит/сек
    Ширина : 720 пикселей
    Высота : 556 пикселей
    Соотношение сторон : 1,383
    Соотношение сторон в оригинале : 1,385
    Режим частоты кадров : Постоянный
    Частота кадров : 25,000 кадров/сек
    Цветовое пространство : YUV
    Субдискретизация насыщенности : 4:2:0
    Битовая глубина : 8 бит
    Тип развёртки : Прогрессивная
    Бит/(Пиксели*Кадры) : 0.224
    Размер потока : 1,29 Гбайт (89%)
    Библиотека кодирования : x264 core 108 r1790 8eaf8a6
    Настройки программы : cabac=1 / ref=10 / deblock=1:-1:-1 / analyse=0x3:0x133 / me=umh / subme=10 / psy=1 / psy_rd=1.20:0.10 / mixed_ref=1 / me_range=32 / chroma_me=1 / trellis=2 / 8x8dct=1 / cqm=0 / deadzone=21,11 / fast_pskip=0 / chroma_qp_offset=-3 / threads=12 / sliced_threads=0 / nr=0 / decimate=1 / interlaced=0 / constrained_intra=0 / bframes=8 / b_pyramid=2 / b_adapt=2 / b_bias=0 / direct=3 / weightb=1 / open_gop=0 / weightp=2 / keyint=250 / keyint_min=25 / scenecut=40 / intra_refresh=0 / rc_lookahead=70 / rc=2pass / mbtree=1 / bitrate=2243 / ratetol=1.0 / qcomp=0.70 / qpmin=10 / qpmax=51 / qpstep=4 / cplxblur=20.0 / qblur=0.5 / ip_ratio=1.40 / aq=2:0.70
    Язык : English
    Default : Нет
    Forced : Нет

    Аудио
    Идентификатор : 2
    Формат : AC-3
    Формат/Информация : Audio Coding 3
    Расширение режима : CM (complete main)
    Параметр Endianness формата : Big
    Идентификатор кодека : A_AC3
    Продолжительность : 1 ч. 24 м.
    Вид битрейта : Постоянный
    Битрейт : 224 Кбит/сек
    Каналы : 1 канал
    Расположение каналов : Front: C
    Частота : 48,0 КГц
    Битовая глубина : 16 бит
    Метод сжатия : С потерями
    Задержка видео : 101 мс.
    Размер потока : 135 Мбайт (9%)
    Default : Да
    Forced : Нет

    Слезы капали скачать торрент

    pb.wtf



    Скачать Слезы капали через торрент http://pic.kartinco.top/images/6/hged5.jpg Скачать фильм Слезы капали через торрент бесплантно в хорошем качестве Описание: Этот фильм начинается так же, как и сказка Андерсена "Снежная королева". Злой волшебник-тролль смастерил зеркало, в котором всё ... 10 10 3
    Info! Золотая раздача, скачанное не засчитывается.
    Торрент: Зарегистрирован [2014-01-08 07:52] · скачан: 63 раз
    Статус: √ проверено
    Размер: 1.45 GB
    Как cкачать? Как скачать Слезы капали через торрент | qTorrent

    08-01-2014 12:40 Слезы капали Скачать торрент  

    А раздача то будет???pb.wtf



    08-01-2014 14:52 Слезы капали Скачать торрент  

    alexim
    Да вроде с момента публикации торрента стою на раздаче и все тянут нормально. И столько скачали уже ,и раздают ...
    Я смотрю , у Вас 0 скачанного ,если не сдвинется - пишите в ЛС ,перекину раздачу на еще одну машину.pb.wtf



      Дорогой пользователь! Огромная просьба, поблагодарите релизера, оцените раздачу и оставьте свои комментарий, если Вы скачали Слезы капали через торрент бесплатно! Внесите свою лепту в развитие PiratBit!
      Комментировать посты могут только пользователи прошедшие не сложную регистрацию
      Показать сообщения:    

      Слезы капали через торрент
      Скачать бесплатно Слезы капали
      Слезы капали скачать торрент
      Слезы капали смотреть онлайн
      Cкачать фильм Слезы капали бесплатно
      Слезы капали скачать торрент в хорошем качестве
      Слезы капали смотреть онлайн бесплатно в хорошем качестве


      Вы не можете начинать темы
      Вы не можете отвечать на сообщения
      Вы не можете редактировать свои сообщения
      Вы не можете удалять свои сообщения
      Вы не можете голосовать в опросах
      Вы не можете прикреплять файлы к сообщениям
      Вы можете скачивать файлы