2 сезон

iTunes

MVO

1

2 сезон

iTunes

iTunes

1 сезон

RePack

30

Новинка

ВАЖНО

ИГРА 18+

pack

RePack

MK11
pack

Легкие деньги

RePack

jed

RePack

fifa19

RePack

RDR2

RePack

NEED FOR SPEED™ PAYBACK

4 сезон

9 сезон

Бесстыжие 9 сезон

Все сериалы

все сериалы на PB.wtf

RePack

FAR CRY 5

Anonymous, добрый вечер, мы не успеваем собрать деньги на оплату серверов за декабрь и январь, помогите нам пожалуйста в это трудное время. В качестве благодарности мы отключим Вам всю рекламу на сайте (укажите свой ник в строку Ваше имя)!

×
  
Magnet ссылка

Metallica - Freeze 'Em All: Live in Antarctica (2013) DVD-5 [2013 г., Thrash Metal Rock, DVD5] pb.wtf

Metallica - Freeze 'Em All: Live in Antarctica через торрент pb.wtf

Размер: 4.1 GB | Добавлен: 7 лет назад | Торрент скачан:169 раз
Скачать  

08-01-2014 12:50 Metallica - Freeze 'Em All: Live in Antarctica Скачать торрент  

Metallica - Freeze 'Em All: Live in Antarctica (2013) DVD-5
Год выпуска: 2013
Страна: U.S.A.
Жанр: Thrash Metal Rock,
Продолжительность: 01:22:40
8 декабря 2013 года, Metallica установила мировой рекорд, став первой и единственной группой в истории, которая выступила с концертами на всех континентах за год! Сейчас можно посмотреть, как Metallica играет для небольшой группы поклонников, и исследователей ученых в маленьком куполе на базе The Carlini Argentine в Антарктиде!
Intro
01. Creeping Death
02. For Whom the Bell Tolls
03. Sad But True
04. Welcome Home (Sanitarium)
05. Master of Puppets
06. One
07. Blackened
08. Nothing Else Matters
09. Enter Sandman
10. Seek & Destroy.
Качество: DVD5
Формат: DVD Video
Видео кодек: MPEG2
Аудио кодек: MPEG Audio
Видео: MPEG2, 720х576, ~6514 kbps
Аудио: MPEG Audio Layer 2, 2 ch, 320.00 kbps




General
Complete name : C:UsersEddyVideosТорентыmetallica_live_in_antarctica_VIDEO_TSVTS_01_1.VOB
Format : MPEG-PS
File size : 1 024 MiB
Duration : 20mn 31s
Overall bit rate mode : Variable
Overall bit rate : 6 972 Kbps
Writing library : encoded by TMPGEnc Authoring Works 4 Version. 4.0.12.42

Video
ID : 224 (0xE0)
Format : MPEG Video
Format version : Version 2
Format profile : Main@Main
Format settings, BVOP : Yes
Format settings, Matrix : Custom
Format settings, GOP : Variable
Duration : 20mn 31s
Bit rate mode : Variable
Bit rate : 6 513 Kbps
Maximum bit rate : 8 000 Kbps
Width : 720 pixels
Height : 576 pixels
Display aspect ratio : 16:9
Frame rate : 25.000 fps
Standard : PAL
Color space : YUV
Chroma subsampling : 4:2:0
Bit depth : 8 bits
Scan type : Progressive
Compression mode : Lossy
Bits/(Pixel*Frame) : 0.628
Stream size : 956 MiB (93%)
Alignment : encoded by TMPGEnc Authoring Works 4 Version. 4.0.12.42
Title : TMPGEnc
Writing application : Authoring Works 4 Version. 4.0.12.42
Writing library : TMPGEnc Authoring Works 4 Version. 4.0.12.42
Color primaries : BT.601 PAL
Transfer characteristics : BT.470 System B, BT.470 System G
Matrix coefficients : BT.601

Audio
ID : 192 (0xC0)
Format : MPEG Audio
Format version : Version 1
Format profile : Layer 2
Duration : 20mn 31s
Bit rate mode : Constant
Bit rate : 320 Kbps
Channel(s) : 2 channels
Sampling rate : 48.0 KHz
Compression mode : Lossy
Stream size : 47.0 MiB (5%)
pb.wtf



Скачать Metallica - Freeze 'Em All: Live in Antarctica через торрент http://pic.kartinco.top/images/6/3jnv3.jpg Скачать фильм Metallica - Freeze через торрент бесплантно в хорошем качестве Описание:8 декабря 2013 года, Metallica установила мировой рекорд, став первой и единственной группой в истории, которая выступила с ... 9.8 10 9
Info! Золотая раздача, скачанное не засчитывается.
Торрент: Зарегистрирован [2014-01-08 12:50] · скачан: 169 раз
Статус: √ проверено
Размер: 4.1 GB
Как cкачать? Как скачать Metallica - Freeze 'Em All: Live in Antarctica через торрент | UTorrent

28-11-2019 20:33  

Отключить всю рекламу на сайте

08-01-2014 13:24 Metallica - Freeze 'Em All: Live in Antarctica Скачать торрент  

В начале ведущая шоу трещит что то непонятное и нудное на испанском(?)языке.Минут 8 придётся потерпеть...Всем поклонникам и ценителям советую.На фоне арктических пейзажей "Метла"очень даже доставляет!pb.wtf



    Дорогой пользователь! Огромная просьба, поблагодарите релизера, оцените раздачу и оставьте свои комментарий, если Вы скачали Metallica - Freeze 'Em All: Live in Antarctica через торрент бесплатно! Внесите свою лепту в развитие PiratBit!
    Комментировать посты могут только пользователи прошедшие не сложную регистрацию
    Показать сообщения:    

    Metallica - Freeze 'Em All: Live in Antarctica через торрент
    Скачать бесплатно Metallica - Freeze 'Em All: Live in Antarctica
    Metallica - Freeze 'Em All: Live in Antarctica скачать торрент
    Metallica - Freeze 'Em All: Live in Antarctica смотреть онлайн
    Cкачать фильм Metallica - Freeze 'Em All: Live in Antarctica бесплатно
    Metallica - Freeze 'Em All: Live in Antarctica скачать торрент в хорошем качестве
    Metallica - Freeze 'Em All: Live in Antarctica смотреть онлайн бесплатно в хорошем качестве


    Вы не можете начинать темы
    Вы не можете отвечать на сообщения
    Вы не можете редактировать свои сообщения
    Вы не можете удалять свои сообщения
    Вы не можете голосовать в опросах
    Вы не можете прикреплять файлы к сообщениям
    Вы можете скачивать файлы