Ссылка на приватное зеркало нашего сайта всего за 1$. Внимание количество ограничено!!!

2 сезон

iTunes

1 сезон

1

iTunes

iTunes

iTunes

1 сезон

RePack

30

ИГРА 18+

pack

ВАЖНО

!!Акция!!

Alien_RageХит недели

RePack

MK11
pack

Забери бонус

RePack

jed

!!Акция!!

Alien_Rage

RePack

fifa19

RePack

Assassins Creed: Odyssey

RePack

NEED FOR SPEED™ PAYBACK

4 сезон

9 сезон

Бесстыжие 9 сезон

Все сериалы

все сериалы на PB.wtf

RePack

FAR CRY 5
  

Мальчишник: Часть III / The Hangover Part III (Тодд Филлипс / Todd Phillips) [2013, США, комедия, BD Remux, DUB] [ iTunes Russia] pb.wtf

Мальчишник: Часть III через торрент pb.wtf

Размер: 21.64 GB | Добавлен: 6 лет 9 мес. назад | Торрент скачан:70 раз
Скачать  

20-09-2013 15:06 Мальчишник: Часть III Скачать торрент  

Мальчишник: Часть III / The Hangover Part III

Год выпуска : 2013
Страна: США
Жанр: комедия

Продолжительность: 01:40:09
Перевод: Профессиональный (полное дублирование) [Русский, Украинский / iTunes Russia]

Субтитры: Русские (forced, full), украинские (forced, full), английские
Режиссер: Тодд Филлипс / Todd Phillips
В ролях: Брэдли Купер (Phil), Эд Хелмс (Stu), Зак Галифианакис (Alan), Кен Жонг (Mr. Chow), Джон Гудман (Marshall), Джастин Барта (Doug), Джеффри Тэмбор (Sid), Мелисса МакКарти (Cassie), Хэзер Грэм (Jade), Джейми Чунг (Lauren), Майк Эппс (Black Doug), Саша Баррези (Tracy)
Описание: В этот раз никакой свадьбы. Никакого мальчишника. Казалось бы, что могло пойти не так? Но когда Волчья стая оказывается на дороге, все ставки снимаются.
Рейтинг

imdb.com: 6.00 (68 843)
MPAA: R - Лицам до 17 лет обязательно присутствие взрослого
Качество: BD Remux
Формат: MKV
Видео кодек: AVC
Аудио кодек: AC3/DTS
Видео: AVC, 1920x1080 (16:9), 27988 kbps, 23,976 fps
Аудио №1: русский / AC3 / 5.1 / 48 kHz / 384 kbps / 16 bit
Аудио №2: украинский / AC3 / 2.0 / 48 kHz / 384 kbps / 16 bit
Аудио №3: английский / DTS-HD / 5.1 / 48 kHz / 1560 kbps / 24 bit

General
Unique ID : 239901225503801628934374238071302877363 (0xB47B4B9EA208A81CAF699C9AB5C770B3)
Complete name : I:Мальчишник.Часть.III-The.Hangover.Part.III.(2013).BDRemux.[1080p].mkv
Format : Matroska
Format version : Version 2
File size : 21.6 GiB
Duration : 1h 40mn
Overall bit rate mode : Variable
Overall bit rate : 30.9 Mbps
Movie name : The Hangover Part III (2013)
Encoded date : UTC 2013-09-20 11:40:59
Writing application : mkvmerge v5.7.0 ('The Whirlwind') built on Aug 7 2012 14:11:40
Writing library : libebml v1.2.3 + libmatroska v1.3.0

Video
ID : 1
Format : AVC
Format/Info : Advanced Video Codec
Format profile : High@L4.1
Format settings, CABAC : Yes
Format settings, ReFrames : 2 frames
Codec ID : V_MPEG4/ISO/AVC
Duration : 1h 40mn
Bit rate mode : Variable
Bit rate : 28.0 Mbps
Width : 1 920 pixels
Height : 1 080 pixels
Display aspect ratio : 16:9
Frame rate : 23.976 fps
Color space : YUV
Chroma subsampling : 4:2:0
Bit depth : 8 bits
Scan type : Progressive
Bits/(Pixel*Frame) : 0.563
Stream size : 19.6 GiB (90%)
Title : Мальчишник.Часть.III-The.Hangover.Part.III.(2013).BDRemux.[1080p]
Language : English
Default : Yes
Forced : No

Audio #1
ID : 2
Format : AC-3
Format/Info : Audio Coding 3
Mode extension : CM (complete main)
Codec ID : A_AC3
Duration : 1h 40mn
Bit rate mode : Constant
Bit rate : 384 Kbps
Channel(s) : 6 channels
Channel positions : Front: L C R, Side: L R, LFE
Sampling rate : 48.0 KHz
Bit depth : 16 bits
Compression mode : Lossy
Stream size : 275 MiB (1%)
Title : AC3 5.1 / 384 kbps / Dub (iTunes Russia)
Language : Russian
Default : Yes
Forced : No

Audio #2
ID : 3
Format : AC-3
Format/Info : Audio Coding 3
Mode extension : CM (complete main)
Codec ID : A_AC3
Duration : 1h 40mn
Bit rate mode : Constant
Bit rate : 384 Kbps
Channel(s) : 2 channels
Channel positions : Front: L R
Sampling rate : 48.0 KHz
Bit depth : 16 bits
Compression mode : Lossy
Delay relative to video : 963ms
Stream size : 275 MiB (1%)
Title : AC3 2.0 / 384 kbps / Dub (iTunes Russia)
Language : Ukrainian
Default : No
Forced : No

Audio #3
ID : 4
Format : DTS
Format/Info : Digital Theater Systems
Format profile : MA / Core
Codec ID : A_DTS
Duration : 1h 40mn
Bit rate mode : Variable
Bit rate : 1 561 Kbps / 1 510 Kbps
Channel(s) : 6 channels
Channel positions : Front: L C R, Side: L R, LFE
Sampling rate : 48.0 KHz
Bit depth : 24 bits
Compression mode : Lossless / Lossy
Title : DTS-HD MA 5.1 / 3714 kbps / Original
Language : English
Default : No
Forced : No

Text #1
ID : 5
Format : UTF-8
Codec ID : S_TEXT/UTF8
Codec ID/Info : UTF-8 Plain Text
Title : Forced
Language : Russian
Default : Yes
Forced : No

Text #2
ID : 6
Format : UTF-8
Codec ID : S_TEXT/UTF8
Codec ID/Info : UTF-8 Plain Text
Title : Full
Language : Russian
Default : No
Forced : No

Text #3
ID : 7
Format : UTF-8
Codec ID : S_TEXT/UTF8
Codec ID/Info : UTF-8 Plain Text
Title : Forced
Language : Ukrainian
Default : No
Forced : No

Text #4
ID : 8
Format : UTF-8
Codec ID : S_TEXT/UTF8
Codec ID/Info : UTF-8 Plain Text
Title : Full
Language : Ukrainian
Default : No
Forced : No

Text #5
ID : 9
Format : UTF-8
Codec ID : S_TEXT/UTF8
Codec ID/Info : UTF-8 Plain Text
Language : English
Default : No
Forced : No

Menu
00:00:00.000 : en:Chapter 1
00:10:49.983 : en:Chapter 2
00:17:47.692 : en:Chapter 3
00:26:16.992 : en:Chapter 4
00:37:56.858 : en:Chapter 5
00:47:01.736 : en:Chapter 6
00:55:08.680 : en:Chapter 7
01:06:09.632 : en:Chapter 8
01:19:41.735 : en:Chapter 9
01:27:44.843 : en:Chapter 10
01:34:53.021 : en:Chapter 11
pb.wtf



Скачать Мальчишник: Часть III через торрент http://i5.imageban.ru/out/2013/09/20/f1627726ba16bb9e939e1a0f2dcad435.png Скачать фильм Мальчишник: Часть III через торрент бесплантно в хорошем качестве Описание: В этот раз никакой свадьбы. Никакого мальчишника. Казалось бы, что могло пойти не так? Но когда Волчья стая оказывается на ... 9.5 10 17
Info! Золотая раздача, скачанное не засчитывается.
Торрент: Зарегистрирован [2014-01-08 13:30] · скачан: 70 раз
Статус: √ проверено
Размер: 21.64 GB
Как cкачать? Как скачать Мальчишник: Часть III через торрент | qTorrent

% Раздел Тема Автор DL S | L
Ultra HD (UHD: 2K, 4K, 8K) — видео сверхвысокой чёткости [ 19.6 GB ] Мальчишник: Часть III / The Hangover Part III [2013 UHD WEBRip 2160p] AVO+DUB bober100 Скачать
1 | 0
Фильмы 2013 [DVDrip, WEB-DLRip, HDrip] [ 1.46 GB ] Мальчишник: Часть III / The Hangover Part III [2013 HDRip [Цифровая / Russia] Ворон Скачать
1 | 0
Фильмы 2013 [DVDrip, WEB-DLRip, HDrip] [ 2.06 GB ] Мальчишник: Часть III / The Hangover Part III [2013 BDRip ] coc900 Скачать
1 | 0
Фильмы 2013 [DVDrip, WEB-DLRip, HDrip] [ 1.46 GB ] Мальчишник: Часть III / The Hangover Part III [2013 BDRip-AVC] Dub () sokol_ok Скачать
2 | 0
Фильмы 2013 [DVDrip, WEB-DLRip, HDrip] [ 2.2 GB ] Мальчишник: Часть III / The Hangover Part III [2013 BDRip-AVC] Dub + AVO + Eng + Sub sokol_ok Скачать
2 | 0
Фильмы (DVD фильмы) [ 5.54 GB ] Мальчишник: Часть III / The Hangover Part III [2013 DVD9] R5 voovaz Скачать
1 | 0
Фильмы 2013 [DVDrip, WEB-DLRip, HDrip] [ 1.46 GB ] Мальчишник: Часть III / The Hangover Part III [2013 HDRip] AVO [Д. Пучков aka Гоблин] [ ] Ворон Скачать
1 | 0

28-11-2019 20:33  

Отключить всю рекламу на сайте

    Дорогой пользователь! Огромная просьба, поблагодарите релизера, оцените раздачу и оставьте свои комментарий, если Вы скачали Мальчишник: Часть III через торрент бесплатно! Внесите свою лепту в развитие PiratBit!
    Комментировать посты могут только пользователи прошедшие не сложную регистрацию
    Показать сообщения:    

    Мальчишник: Часть III через торрент
    Скачать бесплатно Мальчишник: Часть III
    Мальчишник: Часть III скачать торрент
    Мальчишник: Часть III смотреть онлайн
    Cкачать фильм Мальчишник: Часть III бесплатно
    Мальчишник: Часть III скачать торрент в хорошем качестве
    Мальчишник: Часть III смотреть онлайн бесплатно в хорошем качестве


    Вы не можете начинать темы
    Вы не можете отвечать на сообщения
    Вы не можете редактировать свои сообщения
    Вы не можете удалять свои сообщения
    Вы не можете голосовать в опросах
    Вы не можете прикреплять файлы к сообщениям
    Вы можете скачивать файлы