Ссылка на приватное зеркало нашего сайта всего за 1$. Внимание количество ограничено!!!

2 сезон

iTunes

1 сезон

1

iTunes

iTunes

iTunes

1 сезон

RePack

30

ИГРА 18+

pack

ВАЖНО

!!Акция!!

Alien_RageХит недели

RePack

MK11
pack

Забери бонус

RePack

jed

!!Акция!!

Alien_Rage

RePack

fifa19

RePack

Assassins Creed: Odyssey

RePack

NEED FOR SPEED™ PAYBACK

4 сезон

9 сезон

Бесстыжие 9 сезон

Все сериалы

все сериалы на PB.wtf

RePack

FAR CRY 5
  

Антисоциалка / Antisocial (Коуди Кэлахан) [2013 г., ужасы, HDRip, Любительский двухголосый"TheAngelOfDeath & SweetySacrifice"] pb.wtf

Антисоциалка через торрент pb.wtf

Размер: 1.43 GB | Добавлен: 5 лет 10 мес. назад | Торрент скачан:82 раза
Скачать  

08-01-2014 16:52 Антисоциалка Скачать торрент  

Антисоциалка / Antisocial
Год выпуска: 2013
Страна: Канада / Black Fawn Films, Breakthrough Entertainment
Жанр: ужасы
Продолжительность: 01:29:33
Перевод: Любительский двухголосый (TheAngelOfDeath & SweetySacrifice)

Режиссер: Коуди Кэлахан



В ролях: Мишель Майлетт, Коуди Рэй Томпсон, Адам Кристи, Ана Алич, Ромэйн Вейт, Райан Баррет, Лорел Брандес, Чад Арчибальд,

Описание: Пятеро друзей собираются вместе, чтобы отметить наступление Нового Года. Но вместо подарков от Деда Мороза их ждет неприятный сюрприз — за дверьми их дома разразилась эпидемия и неизвестный вирус сводит с ума людей. Что остается делать героям? Забаррикадировавшись, они держат оборону от нападок извне и медленно сходят с ума внутри…

Качество: HDRip
Формат: AVI
Видео кодек: XviD
Аудио кодек: MP3
Видео: MPEG4, XviD, 720x376 (1.915), 24.000 fps, 1 833 Kbps (0.282 bit/pixel)
Аудио: AC-3, 48.0 KHz, 6 ch, 448 Kbps, CBR

скриншот   скриншот   скриншот   скриншот   скриншот  

Общее
Полное имя : G:\кино\Антисоциалка.2013.HDRip.avi
Формат : AVI
Формат/Информация : Audio Video Interleave
Размер файла : 1,43 Гбайт
Продолжительность : 1 ч. 29 м.
Общий поток : 2290 Кбит/сек
Программа кодирования : VirtualDubMod 1.5.10.3 | www.virtualdub-fr.org || (build 2550/release)
Библиотека кодирования : VirtualDubMod build 2550/release

Видео
Идентификатор : 0
Формат : MPEG-4 Visual
Профиль формата : Advanced Simple@L5
Параметр BVOP формата : 2
Параметр QPel формата : Нет
Параметр GMC формата : Без точки перехода
Параметр матрицы формата : Default (H.263)
Идентификатор кодека : XVID
Идентификатор кодека/Подсказка : XviD
Продолжительность : 1 ч. 29 м.
Битрейт : 1833 Кбит/сек
Ширина : 720 пикселей
Высота : 376 пикселей
Соотношение сторон : 1,915
Частота кадров : 24,000 кадра/сек
Цветовое пространство : YUV
Субдискретизация насыщенности : 4:2:0
Битовая глубина : 8 бит
Тип развёртки : Прогрессивная
Метод сжатия : С потерями
Бит/(Пиксели*Кадры) : 0.282
Размер потока : 1,14 Гбайт (80%)
Библиотека кодирования : XviD 1.2.1 (UTC 2008-12-04)

Аудио
Идентификатор : 1
Формат : AC-3
Формат/Информация : Audio Coding 3
Расширение режима : CM (complete main)
Параметр Endianness формата : Big
Идентификатор кодека : 2000
Продолжительность : 1 ч. 29 м.
Вид битрейта : Постоянный
Битрейт : 448 Кбит/сек
Каналы : 6 каналов
Расположение каналов : Front: L C R, Side: L R, LFE
Частота : 48,0 КГц
Битовая глубина : 16 бит
Метод сжатия : С потерями
Размер потока : 286 Мбайт (20%)
Выравнивание : Разделение по промежуткам
Продолжительность промежутка : 42 мс. (1,00 видеокадр)
Время предзагрузки промежутка : 500 мс.

pb.wtf



Скачать Антисоциалка через торрент http://pic.kartinco.top/images/6/6crjk.jpg Скачать фильм Антисоциалка через торрент бесплантно в хорошем качестве Описание: Пятеро друзей собираются вместе, чтобы отметить наступление Нового Года. Но вместо подарков от Деда Мороза их ждет неприятный ... 9.3 10 15
Торрент: Зарегистрирован [2014-12-02 17:31] · скачан: 82 раз
Статус: √ проверено
Размер: 1.43 GB
Как cкачать? Как скачать Антисоциалка через торрент | qTorrent

% Раздел Тема Автор DL S | L
T Фильмы 2013 (Звук TS, Cam, VO, DVO) [ 740 MB ] Антисоциалка / Antisocial [2013 HDRip] VO [Хихидок] Cталин Скачать
1 | 0


Последний раз редактировалось: coc900 (2014-12-02 17:29), всего редактировалось 1 раз

28-11-2019 20:33  

Отключить всю рекламу на сайте

08-01-2014 17:37 Антисоциалка Скачать торрент  

Как фильм?pb.wtf



08-01-2014 22:55 Антисоциалка Скачать торрент  

полная чшьpb.wtf



02-12-2014 17:36 Антисоциалка Скачать торрент  

Релиз обновлен!Просьба перекачать торрент файл!Любительская одноголоска от ХиХиДока заменена на двухголосую озвучку от TheAngelOfDeath & SweetySacrificepb.wtf



    Дорогой пользователь! Огромная просьба, поблагодарите релизера, оцените раздачу и оставьте свои комментарий, если Вы скачали Антисоциалка через торрент бесплатно! Внесите свою лепту в развитие PiratBit!
    Комментировать посты могут только пользователи прошедшие не сложную регистрацию
    Показать сообщения:    

    Антисоциалка через торрент
    Скачать бесплатно Антисоциалка
    Антисоциалка скачать торрент
    Антисоциалка смотреть онлайн
    Cкачать фильм Антисоциалка бесплатно
    Антисоциалка скачать торрент в хорошем качестве
    Антисоциалка смотреть онлайн бесплатно в хорошем качестве


    Вы не можете начинать темы
    Вы не можете отвечать на сообщения
    Вы не можете редактировать свои сообщения
    Вы не можете удалять свои сообщения
    Вы не можете голосовать в опросах
    Вы не можете прикреплять файлы к сообщениям
    Вы можете скачивать файлы