Достать ножи: Стеклянная луковица

MVO

Добыча

Дубляж

Уэнсдэй

1 сезон

Тор

Дубляж

13 клиническая

1 сезон

Жестокая ночь

MVO

Одни из нас

1 сезон

Deluxe

pack

Рекомендуем

30

Пиратка

ВАЖНО

ВАЖНО

Ghostwire

Пиратка

jed

RePack

nioh2

RePack

RDR2

RePack

NEED FOR SPEED™ PAYBACK

RePack

скачать торрент

Кинопоиск HD

Острые козырьки 6 сезон

6 сезон

FAR CRY 6

RePack

скачать торрент

Лицензия

скачать торрент

MVO

1

1 сезон

скачать торрент

1 сезон

скачать торрент

Лицензия

  

Нерожденный / The Unborn (Дэвид С. Гойер) [2009 г., Ужасы, триллер, BDRip 720p, Профессиональный + Оригинал] от DHT-Movies

Нерожденный через торрент pb.wtf

Размер: 3.03 GB | Добавлен: 9 лет назад | Торрент скачан:319 раз
Смотреть онлайн | Скачать | Поддержите нас   

09-01-2014 15:37 Нерожденный Скачать торрент  

Нерожденный / The UnbornГод выпуска: 2009
Страна: США
Жанр: Ужасы, триллер,
Продолжительность: 01:28:43
Перевод: Профессиональный + Оригинал
Субтитры: Английские + Русские (softsub (SRT))

Режиссер: Дэвид С. Гойер
Продюссер: Майкл Бэй, Эндрю Форм, Брэдли Фулле
Сценарий: Дэвид С. Гойер

Бюджет: $16 000 000
Премьера в мире: 9 января 2009



В ролях: Одетт Эннэйбл, Гари Олдман, Кэм Жиганде, Мэган Гуд, Идрис Эльба, Джейн Александер (I), Аттикус Шаффер, Джеймс Римар, Карла Гуджино, К.С. Ли, Риз Койро, Майкл Сэссон, Итан Каткоски, Крэйг Дж. Харрис, Рэйчел Броснахэн, Кимберли Меллен, Брайан Боланд, Минди Белл, Розлин Александр, Мори Купер, Мэнди Шнайдер, Гай Ван Сверинген, Эрика Рэтклифф, Саванна Уолкер, Доменика Фишер, Марсси Менкотти, Сара Веллингтон, Алексис Вэйд, Том Лоуелл, Кенья Дрю, Скотт Линдвэлл, Браден Моран, Эйден Дэвид, Коннор Дэвид, Лили Хейден, Джон Брайант, Ричард Мосли, Ронни Селлерс,

Описание: Кейси Белл ненавидела свою мать за то, что та ее бросила. Но, когда начинает твориться необъяснимое, Кейси понимает, почему мама ушла. Измученная кошмарами и присутствием злого духа, она обращается к единственному человеку, который, возможно, способен ее спасти — опытному советчику по спиритуальным вопросам, а также известному экзорцисту по имени Сендак.

Качество: BDRip 720p | Blu-Ray Remux (1080p)
Формат: MKV
Видео кодек: H.264
Аудио кодек: AC3
Видео: 1280 x 536 (2,40:1), 23,976 fps, AVC (х264) [email protected], ~ 4000 Kbps, 0.243 bit/pixel
Аудио #1: 48 kHz, AC3 Dolby Digital, 3/2 (L,C,R,l,r) + LFE ch, ~ 448 kbps avg |RUS|
Аудио #2: 48 kHz, AC3 Dolby Digital, 3/2 (L,C,R,l,r) + LFE ch, ~ 448 kbps avg |ENG|


Релиз группа: | by Dean24
скриншот  скриншот  
скриншот  скриншот  





avs [info]: 1280x536p 1:1 @ 2500000/104271 fps (cfr)
x264 [info]: using SAR=1/1
x264 [info]: using cpu capabilities: MMX2 SSE2Fast SSSE3 Cache64
x264 [info]: profile High, level 4.1
x264 [info]: frame I:1049 Avg QP:13.11 size:116690
x264 [info]: frame P:27432 Avg QP:15.97 size: 37989
x264 [info]: frame B:99165 Avg QP:18.99 size: 15062
x264 [info]: consecutive B-frames: 3.5% 3.0% 5.0% 15.4% 12.9% 38.2% 9.5% 7.2% 2.7% 2.6%
x264 [info]: mb I I16..4: 21.4% 55.4% 23.2%
x264 [info]: mb P I16..4: 2.0% 11.7% 1.4% P16..4: 34.1% 21.6% 14.6% 1.6% 0.5% skip:12.6%
x264 [info]: mb B I16..4: 0.1% 2.3% 0.1% B16..8: 40.5% 12.5% 3.3% direct: 6.0% skip:35.2% L0:45.6% L1:44.4% BI:10.0%
x264 [info]: 8x8 transform intra:79.1% inter:55.8%
x264 [info]: direct mvs spatial:98.1% temporal:1.9%
x264 [info]: coded y,uvDC,uvAC intra: 87.7% 65.6% 38.7% inter: 29.4% 12.5% 1.7%
x264 [info]: i16 v,h,dc,p: 44% 9% 20% 27%
x264 [info]: i8 v,h,dc,ddl,ddr,vr,hd,vl,hu: 12% 7% 14% 9% 12% 11% 11% 11% 12%
x264 [info]: i4 v,h,dc,ddl,ddr,vr,hd,vl,hu: 15% 8% 7% 9% 14% 13% 12% 11% 12%
x264 [info]: i8c dc,h,v,p: 42% 24% 19% 15%
x264 [info]: Weighted P-Frames: Y:5.4% UV:2.8%
x264 [info]: ref P L0: 44.1% 8.4% 17.3% 7.6% 5.8% 4.3% 3.6% 2.2% 1.9% 1.6% 1.4% 1.3% 0.2% 0.0%
x264 [info]: ref B L0: 67.1% 13.3% 7.0% 3.5% 2.6% 2.1% 1.7% 1.1% 0.9% 0.6% 0.2%
x264 [info]: ref B L1: 89.8% 10.2%
x264 [info]: kb/s:3994.25

x264 [total]: encoded 127646 frames, 0.90 fps, 3994.25 kb/s
____________________________________
Общее:
Уникальный идентификатор: 220709481169255875462020285241981226682 (0xA60B1991B2560078BDFA5F56BCD14EBA)
Полное имя: D:Для сайтаRip'sThe_Unborn_BDRip_720p_ot_DHT-Movies.mkv
Формат: Matroska
Версия формата: Version 4 / Version 2
Размер файла: 3,03 Гбайт
Продолжительность: 1 ч. 28 м.
Общий поток: 4892 Кбит/сек
Дата кодирования: UTC 2014-01-08 13:39:02
Программа кодирования: mkvmerge v6.5.0 ('Isn't she lovely') built on Oct 20 2013 12:50:05
Библиотека кодирования: libebml v1.3.0 + libmatroska v1.4.1

Видео:
Идентификатор: 1
Формат: AVC
Формат/Информация: Advanced Video Codec
Профиль формата: [email protected]
Параметр CABAC формата: Да
Параметр ReFrames формата: 12 кадров
Идентификатор кодека: V_MPEG4/ISO/AVC
Продолжительность: 1 ч. 28 м.
Битрейт: 4000 Кбит/сек
Ширина: 1280 пикселей
Высота: 536 пикселей
Соотношение сторон: 2,40:1
Режим частоты кадров: Постоянный
Частота кадров: 23,976 кадра/сек
Цветовое пространство: YUV
Субдискретизация насыщенности: 4:2:0
Битовая глубина: 8 бит
Тип развёртки: Прогрессивная
Бит/(Пиксели*Кадры): 0.243
Размер потока: 2,42 Гбайт (80%)
Библиотека кодирования: x264 core 119 r2106 07efeb4
Настройки программы: cabac=1 / ref=12 / deblock=1:-2:-2 / analyse=0x3:0x133 / me=umh / subme=10 / psy=1 / psy_rd=0.97:0.10 / mixed_ref=1 / me_range=32 / chroma_me=1 / trellis=2 / 8x8dct=1 / cqm=0 / deadzone=21,11 / fast_pskip=0 / chroma_qp_offset=0 / threads=3 / sliced_threads=0 / nr=0 / decimate=1 / interlaced=0 / bluray_compat=0 / constrained_intra=0 / bframes=9 / b_pyramid=2 / b_adapt=2 / b_bias=0 / direct=3 / weightb=1 / open_gop=0 / weightp=2 / keyint=240 / keyint_min=23 / scenecut=40 / intra_refresh=0 / rc_lookahead=60 / rc=2pass / mbtree=1 / bitrate=4000 / ratetol=1.0 / qcomp=0.60 / qpmin=0 / qpmax=69 / qpstep=4 / cplxblur=20.0 / qblur=0.5 / ip_ratio=1.40 / aq=1:1.00
Default: Да
Forced: Нет

Аудио #1:
Идентификатор: 2
Формат: AC-3
Формат/Информация: Audio Coding 3
Расширение режима: CM (complete main)
Параметр Endianness формата: Big
Идентификатор кодека: A_AC3
Продолжительность: 1 ч. 28 м.
Вид битрейта: Постоянный
Битрейт: 448 Кбит/сек
Каналы: 6 каналов
Расположение каналов: Front: L C R, Side: L R, LFE
Частота: 48,0 КГц
Битовая глубина: 16 бит
Метод сжатия: С потерями
Размер потока: 284 Мбайт (9%)
Default: Да
Forced: Нет

Аудио #2:
Идентификатор: 3
Формат: AC-3
Формат/Информация: Audio Coding 3
Расширение режима: CM (complete main)
Параметр Endianness формата: Big
Идентификатор кодека: A_AC3
Продолжительность: 1 ч. 28 м.
Вид битрейта: Постоянный
Битрейт: 448 Кбит/сек
Каналы: 6 каналов
Расположение каналов: Front: L C R, Side: L R, LFE
Частота: 48,0 КГц
Битовая глубина: 16 бит
Метод сжатия: С потерями
Размер потока: 284 Мбайт (9%)
Default: Нет
Forced: Нет

Текст #1:
Идентификатор: 4
Формат: UTF-8
Идентификатор кодека: S_TEXT/UTF8
Идентификатор кодека/Информация: UTF-8 Plain Text
Default: Да
Forced: Нет

Текст #2:
Идентификатор: 5
Формат: UTF-8
Идентификатор кодека: S_TEXT/UTF8
Идентификатор кодека/Информация: UTF-8 Plain Text
Default: Нет
Forced: Нет




Скачать Нерожденный через торрент https://pic1.kartinco.top/images/61/4ti41.jpg Скачать, смотреть онлайн Нерожденный бесплантно в хорошем качестве Описание: Кейси Белл ненавидела свою мать за то, что та ее бросила. Но, когда начинает твориться необъяснимое, Кейси понимает, почему мама ... 9.9 10 15
Info! Золотая раздача, скачанное не засчитывается.
Торрент: Зарегистрирован [2014-01-09 15:37] · скачан: 319 раз
Статус: √ проверено
Размер: 3.03 GB
Как cкачать? Как скачать Нерожденный через торрент | UTorrent

28-11-2019 20:33  


Отключить вcю реклaмy на сайте, в т.ч. и в плеере онлайн просмотра!

    Дорогой пользователь! Огромная просьба, поблагодарите релизера, оцените раздачу и оставьте свои комментарий, если Вы скачали Нерожденный через торрент бесплатно!!
    Комментировать посты могут только пользователи прошедшие не сложную регистрацию
    Показать сообщения:    


    Нерожденный через торрент
    Скачать бесплатно Нерожденный
    Нерожденный скачать торрент
    Нерожденный смотреть онлайн
    Cкачать фильм Нерожденный бесплатно
    Нерожденный скачать торрент в хорошем качестве
    Нерожденный смотреть онлайн бесплатно в хорошем качестве
    Вы не можете начинать темы
    Вы не можете отвечать на сообщения
    Вы не можете редактировать свои сообщения
    Вы не можете удалять свои сообщения
    Вы не можете голосовать в опросах
    Вы не можете прикреплять файлы к сообщениям
    Вы можете скачивать файлы
    Нерожденный / The Unborn [2009 г., Ужасы, триллер, BDRip 720p, Профессиональный + Оригинал] от DHT-Movies смотреть онлайн, скачать торрент picoco.icu