2 сезон

iTunes

MVO

1

2 сезон

iTunes

iTunes

1 сезон

RePack

30

Новинка

ВАЖНО

ИГРА 18+

pack

RePack

MK11
pack

Легкие деньги

RePack

jed

RePack

fifa19

RePack

RDR2

RePack

NEED FOR SPEED™ PAYBACK

4 сезон

9 сезон

Бесстыжие 9 сезон

Все сериалы

все сериалы на PB.wtf

RePack

FAR CRY 5

Anonymous, добрый день, мы не успеваем собрать деньги на оплату серверов за декабрь и январь, помогите нам пожалуйста в это трудное время. В качестве благодарности мы отключим Вам всю рекламу на сайте (укажите свой ник в строку Ваше имя)!

×
  
Magnet ссылка

Тихоокеанский рубеж 3D / Pacific Rim 3D (Гильермо дель Торо / Guillermo del Toro) [ 2013 , США , фантастика, боевик, приключения , BDRip ]Профессиональный (полное дублирование Русский, Украинский)Half OverUnder pb.wtf

Тихоокеанский рубеж 3D через торрент pb.wtf

Размер: 11.38 GB | Добавлен: 7 лет назад | Торрент скачан:2090 раз
Скачать  

10-11-2013 03:23 Тихоокеанский рубеж 3D Скачать торрент  

Тихоокеанский рубеж / Pacific Rim
Год выпуска: 2013
Страна: США
Жанр: фантастика, боевик, приключения
Продолжительность: 02:11:17
Перевод: Профессиональный (полное дублирование)
Субтитры: Русские, Украинские, Английские (UTF-8)

Режиссер: Гильермо дель Торо / Guillermo del Toro
Сценарий: Трэвис Бичем / Travis Beacham, Гильермо дель Торо / Guillermo del Toro
Продюсер: Гильермо дель Торо / Guillermo del Toro, Джон Дж. Джашни / Jon Jashni, Мэри Пэрент / Mary Parent, Томас Тулл / Thomas Tull, Чу Чен Оун / Chu Chen On
Оператор: Гильермо Наварро / Guillermo Navarro
Композитор: Рамин Джавади / Ramin Djawadi

Чарли Ханнэм (Raleigh Becket), Идрис Эльба (Stacker Pentecost), Ринко Кикути (Mako Mori), Роберт Казински (Chuck Hansen), Макс Мартини (Herc Hansen), Чарли Дэй (Dr. Newton Geiszler), Берн Горман (Gottlieb), Клифтон Коллинз мл. (Ops Tendo Choi), Рон Перлман (Hannibal Chau), Диего Клаттенхофф (Yancy Becket), Брэд Уильям Хенке (Construction Foreman), Ларри Джо Кэмпбелл (Construction Worker)

Дублёры: Василий Дахненко (Raleigh Becket), Алексей Рязанцев (Stacker Pentecost), Вероника Саркисова (Mako Mori), Илья Исаев (Chuck Hansen), Владимир Зайцев (Herc Hansen), Илья Хвостиков (Dr. Newton Geiszler), Евгений Вальц (Gottlieb), Даниил Эльдаров (Ops Tendo Choi), Владимир Еремин (Hannibal Chau), Александр Дзюба (Yancy Becket), Валерий Сторожик (American UN Representative), Игорь Старосельцев (British UN Representative)

Бюджет: $190 000 000
Сборы в США: $101 802 906
Сборы в России: $20 544 448
Сборы в мире: $407 602 906

Мировая премьера: 2 июля 2013
Релиз на DVD: 14 ноября 2013,«CP Дистрибуция»
Релиз на Blu-ray: 14 ноября 2013,«CP Дистрибуция»

Описание:Когда из морских глубин поднялись легионы чудовищ, известных как Кайдзу, началась война, которой суждено было забрать миллионы жизней и свести «человеческие ресурсы» почти к нулю всего за несколько лет. Чтобы сражаться с пришельцами, было создано специальное оружие: огромные роботы, названные Джегерами, они управлялись одновременно двумя пилотами, чьи сознания соединены с помощью нейронной связи. Но даже Джегеры оказываются почти бессильны перед лицом безжалостных Кайдзу. На грани поражения у защитников человечества нет выбора, кроме как обратиться к двум весьма сомнительным героям - никому не нужному бывшему пилоту и неопытному стажеру - которые объединились, чтобы повести в бой некогда легендарного, но сейчас устаревшего Джегера. Вместе они оказываются единственной надеждой человечества, последним препятствием перед надвигающимся апокалипсисом.

Рейтинг
kinopoisk.ru: 7.281 (42 665)
imdb.com: 7.20 (163 309)
MPAA: PG-13 - Детям до 13 лет просмотр не желателен

Формат 3D:Half OverUnder / Вертикальная анаморфная стереопара
Порядок ракурсов:верхний ракурс первый

Качество: BDRip1080
Формат: MKV
Видео кодек: AVC
Аудио кодек: AC3
Видео: AVC, 1920x1080 (16:9), 10500 kbps, 23,976 fps, 0,211 bpp
Аудио №1: русский / AC3 / 5.1 / 48 kHz / 640 kbps / 16 bit
Аудио №2: украинский / AC3 / 5.1 / 48 kHz / 640 kbps / 16 bit
Аудио №3: английский / AC3 / 5.1 / 48 kHz / 640 kbps / 16 bit

Общее
Кол-во : 284
Кол-во потоков такого типа : 1
Тип потока : General
Тип потока : Общее
Идентификатор типа потока : 0
Inform : Matroska: 11,4 Гбайт, 2 ч. 11 м.
Уникальный идентификатор : 173138901096133367099650324837927856687
Уникальный идентификатор : 173138901096133367099650324837927856687 (0x824156E3F671AC5F9F8CAA156159AA2F)
Кол-во видеопотоков : 1
Кол-во аудиопотоков : 3
Кол-во текстовых потоков : 8
Кол-во потоков меню : 1
Video_Format_List : AVC
Video_Format_WithHint_List : AVC
Видеокодеки : AVC
Video_Language_List : English
Audio_Format_List : AC-3 / AC-3 / AC-3
Audio_Format_WithHint_List : AC-3 / AC-3 / AC-3
Аудиокодеки : AC3 / AC3 / AC3
Audio_Language_List : Russian / Ukrainian / English
Text_Format_List : UTF-8 / UTF-8 / UTF-8 / UTF-8 / UTF-8 / UTF-8 / UTF-8 / UTF-8
Text_Format_WithHint_List : UTF-8 / UTF-8 / UTF-8 / UTF-8 / UTF-8 / UTF-8 / UTF-8 / UTF-8
Текстовые кодеки : UTF-8 / UTF-8 / UTF-8 / UTF-8 / UTF-8 / UTF-8 / UTF-8 / UTF-8
Text_Language_List : Russian / Russian / Russian / Ukrainian / Ukrainian / English / English / English
Полное имя : H:ТОРРЕНТЫРубеж.mkv
Имя папки : H:ТОРРЕНТЫ
Имя файла : Рубеж
Расширение : mkv
Формат : Matroska
Формат : Matroska
Формат/Ссылка : http://packs.matroska.org/
Формат/Используется в : mkv mk3d mka mks
Коммерческое название : Matroska
Версия формата : Version 2
Кодек : Matroska
Кодек : Matroska
Кодек/Ссылка : http://packs.matroska.org/
Кодек/Используется в : mkv mk3d mka mks
Размер файла : 12222469550
Размер файла : 11,4 Гбайт
Размер файла : 11 Гбайт
Размер файла : 11 Гбайт
Размер файла : 11,4 Гбайт
Размер файла : 11,38 Гбайт
Продолжительность : 7877888
Продолжительность : 2 ч. 11 м.
Продолжительность : 2 ч. 11 м. 17 с. 888 мс.
Продолжительность : 2 ч. 11 м.
Продолжительность : 02:11:17.888
Общий поток : 12411925
Общий поток : 12,4 Мбит/сек
Размер потока : 243240276
Размер потока : 232 Мбайт (2%)
Размер потока : 232 Мбайт
Размер потока : 232 Мбайт
Размер потока : 232 Мбайт
Размер потока : 232,0 Мбайт
Размер потока : 232 Мбайт (2%)
Пропорции потока : 0.01990
Заголовок : Pacific Rim 3D (2013) by Killbrain
Название фильма : Pacific Rim 3D (2013) by Killbrain
Дата кодирования : UTC 2013-11-09 18:37:18
Дата файла : UTC 2013-11-10 01:41:10.340
Дата файла (местная) : 2013-11-10 08:41:10.340
Дата изменения файла : UTC 2013-11-10 03:06:58.282
Дата изменения файла (местная) : 2013-11-10 10:06:58.282
Программа кодирования : mkvmerge v5.8.0 ('No Sleep / Pillow') built on Sep 2 2012 15:37:04
Библиотека кодирования : libebml v1.2.3 + libmatroska v1.3.0
Библиотека кодирования : libebml v1.2.3 + libmatroska v1.3.0

Видео
Кол-во : 263
Кол-во потоков такого типа : 1
Тип потока : Video
Тип потока : Видео
Идентификатор типа потока : 0
StreamOrder : 0
Inform : English, 10,5 Мбит/сек, 1920*1080 (16:9), в 23,976 кадра/сек, AVC (High@L4.1) (CABAC / 4 Ref Frames)
Идентификатор : 1
Идентификатор : 1
Уникальный идентификатор : 12327000455506174848
Формат : AVC
Формат/Информация : Advanced Video Codec
Формат/Ссылка : http://developers.videolan.org/x264.html
Коммерческое название : AVC
Профиль формата : High@L4.1
Настройки формата : CABAC / 4 Ref Frames
Параметр CABAC формата : Yes
Параметр CABAC формата : Да
Параметр ReFrames формата : 4
Параметр ReFrames формата : 4 кадра
Интернет-тип носителя : video/H264
Идентификатор кодека : V_MPEG4/ISO/AVC
Идентификатор кодека/Ссылка : http://ffdshow-tryout.sourceforge.net/
Кодек : V_MPEG4/ISO/AVC
Кодек : AVC
Кодек/Семейство : AVC
Кодек/Информация : Advanced Video Codec
Кодек/Ссылка : http://ffdshow-tryout.sourceforge.net/
Профиль кодека : High@L4.1
Настройки кодека : CABAC / 4 Ref Frames
Параметр CABAC кодека : Yes
Codec_Settings_RefFrames : 4
Продолжительность : 7877878
Продолжительность : 2 ч. 11 м.
Продолжительность : 2 ч. 11 м. 17 с. 878 мс.
Продолжительность : 2 ч. 11 м.
Продолжительность : 02:11:17.878
Битрейт : 10500000
Битрейт : 10,5 Мбит/сек
Ширина : 1920
Ширина : 1920 пикселей
Высота : 1080
Высота : 1080 пикселей
Пропорции пикселя : 1.000
Соотношение сторон : 1.778
Соотношение сторон : 16:9
Режим частоты кадров : CFR
Режим частоты кадров : Постоянный
Частота кадров : 23.976
Частота кадров : 23,976 кадра/сек
Счётчик кадров : 188880
Разрешение : 8
Разрешение : 8 бит
Колориметрия : 4:2:0
Цветовое пространство : YUV
Субдискретизация насыщенности : 4:2:0
Битовая глубина : 8
Битовая глубина : 8 бит
Тип развёртки : Progressive
Тип развёртки : Прогрессивная
Переплетение : PPF
Переплетение : Прогрессивная
Бит/(Пиксели*Кадры) : 0.211
Задержка : 0
Задержка : 00:00:00.000
Задержка в оригинале : Container
Задержка в оригинале : Контейнер
Размер потока : 10088536154
Размер потока : 9,40 Гбайт (83%)
Размер потока : 9 Гбайт
Размер потока : 9,4 Гбайт
Размер потока : 9,40 Гбайт
Размер потока : 9,396 Гбайт
Размер потока : 9,40 Гбайт (83%)
Пропорции потока : 0.82541
Заголовок : Pacific Rim 3D (2013)
Библиотека кодирования : x264 - core 138 r2358 9e941d1
Библиотека кодирования : x264 core 138 r2358 9e941d1
Библиотека кодирования/Имя : x264
Библиотека кодирования/Version : core 138 r2358 9e941d1
Настройки программы : cabac=1 / ref=4 / deblock=1:-3:-3 / analyse=0x3:0x113 / me=umh / subme=10 / psy=1 / psy_rd=1.00:0.05 / mixed_ref=1 / me_range=32 / chroma_me=1 / trellis=2 / 8x8dct=1 / cqm=0 / deadzone=21,11 / fast_pskip=0 / chroma_qp_offset=-3 / threads=3 / lookahead_threads=1 / sliced_threads=0 / nr=0 / decimate=0 / interlaced=0 / bluray_compat=0 / constrained_intra=0 / bframes=6 / b_pyramid=2 / b_adapt=2 / b_bias=0 / direct=3 / weightb=1 / open_gop=0 / weightp=2 / keyint=240 / keyint_min=24 / scenecut=40 / intra_refresh=0 / rc_lookahead=60 / rc=2pass / mbtree=0 / bitrate=10500 / ratetol=1.0 / qcomp=0.65 / qpmin=0 / qpmax=69 / qpstep=4 / cplxblur=20.0 / qblur=0.5 / vbv_maxrate=40000 / vbv_bufsize=30000 / nal_hrd=none / frame-packing=4 / ip_ratio=1.40 / pb_ratio=1.30 / aq=1:0.80
Язык : en
Язык : English
Язык : English
Язык : en
Язык : eng
Язык : en
Default : Yes
Default : Да
Forced : No
Forced : Нет

Аудио #1
Кол-во : 243
Кол-во потоков такого типа : 3
Тип потока : Audio
Тип потока : Аудио
Идентификатор типа потока : 0
Позиция идентификатора типа потока : 1
StreamOrder : 1
Inform : Russian, 640 Кбит/сек, 48,0 КГц, 16 бит, 6 каналов, AC-3
Идентификатор : 2
Идентификатор : 2
Уникальный идентификатор : 6594108359491066505
Формат : AC-3
Формат/Информация : Audio Coding 3
Коммерческое название : AC-3
Расширение режима : CM (complete main)
Параметр Endianness формата : Big
Идентификатор кодека : A_AC3
Кодек : AC3
Кодек : AC3
Кодек/Семейство : AC3
Кодек/Информация : Dolby AC3
Продолжительность : 7877888
Продолжительность : 2 ч. 11 м.
Продолжительность : 2 ч. 11 м. 17 с. 888 мс.
Продолжительность : 2 ч. 11 м.
Продолжительность : 02:11:17.888
Вид битрейта : CBR
Вид битрейта : Постоянный
Битрейт : 640000
Битрейт : 640 Кбит/сек
Каналы : 6
Каналы : 6 каналов
Расположение каналов : Front: L C R, Side: L R, LFE
Расположение каналов : 3/2/0.1
Частота : 48000
Частота : 48,0 КГц
Количество образцов : 378138624
Разрешение : 16
Разрешение : 16 бит
Битовая глубина : 16
Битовая глубина : 16 бит
Метод сжатия : Lossy
Метод сжатия : С потерями
Задержка : 0
Задержка : 00:00:00.000
Задержка в оригинале : Container
Задержка в оригинале : Контейнер
Задержка видео : 0
Задержка видео : 0
Размер потока : 630231040
Размер потока : 601 Мбайт (5%)
Размер потока : 601 Мбайт
Размер потока : 601 Мбайт
Размер потока : 601 Мбайт
Размер потока : 601,0 Мбайт
Размер потока : 601 Мбайт (5%)
Пропорции потока : 0.05156
Заголовок : AC3 / 5.1 ch / 640 kbps / Русский дубляж, BD EUR
Язык : ru
Язык : Russian
Язык : Russian
Язык : ru
Язык : rus
Язык : ru
Default : Yes
Default : Да
Forced : No
Forced : Нет
bsid : 6
dialnorm : -27
dialnorm/String : -27 dB
compr : -0.28
compr/String : -0.28 dB
acmod : 7
lfeon : 1
dialnorm_Average : -27
dialnorm_Average/String : -27 dB
dialnorm_Minimum : -27
dialnorm_Minimum/String : -27 dB
dialnorm_Maximum : -27
dialnorm_Maximum/String : -27 dB
dialnorm_Count : 2
compr_Average : -0.28
compr_Average/String : -0.28 dB
compr_Minimum : -0.28
compr_Minimum/String : -0.28 dB
compr_Maximum : -0.28
compr_Maximum/String : -0.28 dB
compr_Count : 2

Аудио #2
Кол-во : 243
Кол-во потоков такого типа : 3
Тип потока : Audio
Тип потока : Аудио
Идентификатор типа потока : 1
Позиция идентификатора типа потока : 2
StreamOrder : 2
Inform : Ukrainian, 640 Кбит/сек, 48,0 КГц, 16 бит, 6 каналов, AC-3
Идентификатор : 3
Идентификатор : 3
Уникальный идентификатор : 1946710993868379292
Формат : AC-3
Формат/Информация : Audio Coding 3
Коммерческое название : AC-3
Расширение режима : CM (complete main)
Параметр Endianness формата : Big
Идентификатор кодека : A_AC3
Кодек : AC3
Кодек : AC3
Кодек/Семейство : AC3
Кодек/Информация : Dolby AC3
Продолжительность : 7877888
Продолжительность : 2 ч. 11 м.
Продолжительность : 2 ч. 11 м. 17 с. 888 мс.
Продолжительность : 2 ч. 11 м.
Продолжительность : 02:11:17.888
Вид битрейта : CBR
Вид битрейта : Постоянный
Битрейт : 640000
Битрейт : 640 Кбит/сек
Каналы : 6
Каналы : 6 каналов
Расположение каналов : Front: L C R, Side: L R, LFE
Расположение каналов : 3/2/0.1
Частота : 48000
Частота : 48,0 КГц
Количество образцов : 378138624
Разрешение : 16
Разрешение : 16 бит
Битовая глубина : 16
Битовая глубина : 16 бит
Метод сжатия : Lossy
Метод сжатия : С потерями
Задержка : 0
Задержка : 00:00:00.000
Задержка в оригинале : Container
Задержка в оригинале : Контейнер
Задержка видео : 0
Задержка видео : 0
Размер потока : 630231040
Размер потока : 601 Мбайт (5%)
Размер потока : 601 Мбайт
Размер потока : 601 Мбайт
Размер потока : 601 Мбайт
Размер потока : 601,0 Мбайт
Размер потока : 601 Мбайт (5%)
Пропорции потока : 0.05156
Заголовок : AC3 / 5.1 ch / 640 kbps / Украинский дубляж, BD EUR
Язык : uk
Язык : Ukrainian
Язык : Ukrainian
Язык : uk
Язык : ukr
Язык : uk
Default : No
Default : Нет
Forced : No
Forced : Нет
bsid : 6
dialnorm : -27
dialnorm/String : -27 dB
compr : -0.28
compr/String : -0.28 dB
acmod : 7
lfeon : 1
dialnorm_Average : -27
dialnorm_Average/String : -27 dB
dialnorm_Minimum : -27
dialnorm_Minimum/String : -27 dB
dialnorm_Maximum : -27
dialnorm_Maximum/String : -27 dB
dialnorm_Count : 2
compr_Average : -0.28
compr_Average/String : -0.28 dB
compr_Minimum : -0.28
compr_Minimum/String : -0.28 dB
compr_Maximum : -0.28
compr_Maximum/String : -0.28 dB
compr_Count : 2

Аудио #3
Кол-во : 243
Кол-во потоков такого типа : 3
Тип потока : Audio
Тип потока : Аудио
Идентификатор типа потока : 2
Позиция идентификатора типа потока : 3
StreamOrder : 3
Идентификатор : 4
Идентификатор : 4
Уникальный идентификатор : 8816431753956736941
Формат : AC-3
Формат/Информация : Audio Coding 3
Коммерческое название : AC-3
Расширение режима : CM (complete main)
Параметр Endianness формата : Big
Идентификатор кодека : A_AC3
Кодек : AC3
Кодек : AC3
Кодек/Семейство : AC3
Кодек/Информация : Dolby AC3
Продолжительность : 7877888
Продолжительность : 2 ч. 11 м.
Продолжительность : 2 ч. 11 м. 17 с. 888 мс.
Продолжительность : 2 ч. 11 м.
Продолжительность : 02:11:17.888
Вид битрейта : CBR
Вид битрейта : Постоянный
Битрейт : 640000
Битрейт : 640 Кбит/сек
Каналы : 6
Каналы : 6 каналов
Расположение каналов : Front: L C R, Side: L R, LFE
Расположение каналов : 3/2/0.1
Частота : 48000
Частота : 48,0 КГц
Количество образцов : 378138624
Разрешение : 16
Разрешение : 16 бит
Битовая глубина : 16
Битовая глубина : 16 бит
Метод сжатия : Lossy
Метод сжатия : С потерями
Задержка : 0
Задержка : 00:00:00.000
Задержка в оригинале : Container
Задержка в оригинале : Контейнер
Задержка видео : 0
Задержка видео : 0
Размер потока : 630231040
Размер потока : 601 Мбайт (5%)
Размер потока : 601 Мбайт
Размер потока : 601 Мбайт
Размер потока : 601 Мбайт
Размер потока : 601,0 Мбайт
Размер потока : 601 Мбайт (5%)
Пропорции потока : 0.05156
Заголовок : AC3 / 5.1 ch / 640 kbps / Английский original, BD US
Язык : en
Язык : English
Язык : English
Язык : en
Язык : eng
Язык : en
Default : No
Default : Нет
Forced : No
Forced : Нет
bsid : 8
dialnorm : -31
dialnorm/String : -31 dB
compr : -0.28
compr/String : -0.28 dB
acmod : 7
lfeon : 1
dialnorm_Average : -31
dialnorm_Average/String : -31 dB
dialnorm_Minimum : -31
dialnorm_Minimum/String : -31 dB
dialnorm_Maximum : -31
dialnorm_Maximum/String : -31 dB
dialnorm_Count : 2
compr_Average : -0.28
compr_Average/String : -0.28 dB
compr_Minimum : -0.28
compr_Minimum/String : -0.28 dB
compr_Maximum : -0.28
compr_Maximum/String : -0.28 dB
compr_Count : 2

Текст #1
Кол-во : 195
Кол-во потоков такого типа : 8
Тип потока : Text
Тип потока : Текст
Идентификатор типа потока : 0
Позиция идентификатора типа потока : 1
StreamOrder : 4
Inform : Russian, UTF-8
Идентификатор : 5
Идентификатор : 5
Уникальный идентификатор : 4322480147624745653
Формат : UTF-8
Коммерческое название : UTF-8
Идентификатор кодека : S_TEXT/UTF8
Идентификатор кодека/Информация : UTF-8 Plain Text
Кодек : S_TEXT/UTF8
Кодек : UTF-8
Кодек/Информация : UTF-8 Plain Text
Заголовок : Forced, BD EUR
Язык : ru
Язык : Russian
Язык : Russian
Язык : ru
Язык : rus
Язык : ru
Default : Yes
Default : Да
Forced : No
Forced : Нет

Текст #2
Кол-во : 195
Кол-во потоков такого типа : 8
Тип потока : Text
Тип потока : Текст
Идентификатор типа потока : 1
Позиция идентификатора типа потока : 2
StreamOrder : 5
Inform : Russian, UTF-8
Идентификатор : 6
Идентификатор : 6
Уникальный идентификатор : 11974701865792718522
Формат : UTF-8
Коммерческое название : UTF-8
Идентификатор кодека : S_TEXT/UTF8
Идентификатор кодека/Информация : UTF-8 Plain Text
Кодек : S_TEXT/UTF8
Кодек : UTF-8
Кодек/Информация : UTF-8 Plain Text
Заголовок : Full, BD EUR
Язык : ru
Язык : Russian
Язык : Russian
Язык : ru
Язык : rus
Язык : ru
Default : No
Default : Нет
Forced : No
Forced : Нет

Текст #3
Кол-во : 195
Кол-во потоков такого типа : 8
Тип потока : Text
Тип потока : Текст
Идентификатор типа потока : 2
Позиция идентификатора типа потока : 3
StreamOrder : 6
Inform : Russian, UTF-8
Идентификатор : 7
Идентификатор : 7
Уникальный идентификатор : 3261178661909352844
Формат : UTF-8
Коммерческое название : UTF-8
Идентификатор кодека : S_TEXT/UTF8
Идентификатор кодека/Информация : UTF-8 Plain Text
Кодек : S_TEXT/UTF8
Кодек : UTF-8
Кодек/Информация : UTF-8 Plain Text
Заголовок : Full, Voronine
Язык : ru
Язык : Russian
Язык : Russian
Язык : ru
Язык : rus
Язык : ru
Default : No
Default : Нет
Forced : No
Forced : Нет

Текст #4
Кол-во : 195
Кол-во потоков такого типа : 8
Тип потока : Text
Тип потока : Текст
Идентификатор типа потока : 3
Позиция идентификатора типа потока : 4
StreamOrder : 7
Идентификатор : 8
Идентификатор : 8
Уникальный идентификатор : 1927335359
Формат : UTF-8
Коммерческое название : UTF-8
Идентификатор кодека : S_TEXT/UTF8
Идентификатор кодека/Информация : UTF-8 Plain Text
Кодек : S_TEXT/UTF8
Кодек : UTF-8
Кодек/Информация : UTF-8 Plain Text
Заголовок : Forced, iTunes
Язык : uk
Язык : Ukrainian
Язык : Ukrainian
Язык : uk
Язык : ukr
Язык : uk
Default : No
Default : Нет
Forced : No
Forced : Нет

Текст #5
Кол-во : 195
Кол-во потоков такого типа : 8
Тип потока : Text
Тип потока : Текст
Идентификатор типа потока : 4
Позиция идентификатора типа потока : 5
StreamOrder : 8
Идентификатор : 9
Идентификатор : 9
Уникальный идентификатор : 3996669346
Формат : UTF-8
Коммерческое название : UTF-8
Идентификатор кодека : S_TEXT/UTF8
Идентификатор кодека/Информация : UTF-8 Plain Text
Кодек : S_TEXT/UTF8
Кодек : UTF-8
Кодек/Информация : UTF-8 Plain Text
Заголовок : Full, iTunes
Язык : uk
Язык : Ukrainian
Язык : Ukrainian
Язык : uk
Язык : ukr
Язык : uk
Default : No
Default : Нет
Forced : No
Forced : Нет

Текст #6
Кол-во : 195
Кол-во потоков такого типа : 8
Тип потока : Text
Тип потока : Текст
Идентификатор типа потока : 5
Позиция идентификатора типа потока : 6
StreamOrder : 9
Идентификатор : 10
Идентификатор : 10
Уникальный идентификатор : 3950955751899643056
Формат : UTF-8
Коммерческое название : UTF-8
Идентификатор кодека : S_TEXT/UTF8
Идентификатор кодека/Информация : UTF-8 Plain Text
Кодек : S_TEXT/UTF8
Кодек : UTF-8
Кодек/Информация : UTF-8 Plain Text
Заголовок : Full, BD US
Язык : en
Язык : English
Язык : English
Язык : en
Язык : eng
Язык : en
Default : No
Default : Нет
Forced : No
Forced : Нет

Текст #7
Кол-во : 195
Кол-во потоков такого типа : 8
Тип потока : Text
Тип потока : Текст
Идентификатор типа потока : 6
Позиция идентификатора типа потока : 7
StreamOrder : 10
Идентификатор : 11
Идентификатор : 11
Уникальный идентификатор : 8365517248305182347
Формат : UTF-8
Коммерческое название : UTF-8
Идентификатор кодека : S_TEXT/UTF8
Идентификатор кодека/Информация : UTF-8 Plain Text
Кодек : S_TEXT/UTF8
Кодек : UTF-8
Кодек/Информация : UTF-8 Plain Text
Заголовок : SDH, BD US
Язык : en
Язык : English
Язык : English
Язык : en
Язык : eng
Язык : en
Default : No
Default : Нет
Forced : No
Forced : Нет

Текст #8
Кол-во : 195
Кол-во потоков такого типа : 8
Тип потока : Text
Тип потока : Текст
Идентификатор типа потока : 7
Позиция идентификатора типа потока : 8
StreamOrder : 11
Идентификатор : 12
Идентификатор : 12
Уникальный идентификатор : 8980347964901735564
Формат : UTF-8
Коммерческое название : UTF-8
Идентификатор кодека : S_TEXT/UTF8
Идентификатор кодека/Информация : UTF-8 Plain Text
Кодек : S_TEXT/UTF8
Кодек : UTF-8
Кодек/Информация : UTF-8 Plain Text
Заголовок : SDH-COLOR, mod. BD US
Язык : en
Язык : English
Язык : English
Язык : en
Язык : eng
Язык : en
Default : No
Default : Нет
Forced : No
Forced : Нет

Меню
Кол-во : 90
Кол-во потоков такого типа : 1
Тип потока : Menu
Тип потока : Меню
Идентификатор типа потока : 0
Chapters_Pos_Begin : 75
Chapters_Pos_End : 90
00:00:00.000 : :Chapter 01
00:09:09.131 : :Chapter 02
00:18:35.823 : :Chapter 03
00:23:04.341 : :Chapter 04
00:33:00.395 : :Chapter 05
00:42:44.895 : :Chapter 06
00:50:01.665 : :Chapter 07
01:01:09.666 : :Chapter 08
01:14:45.105 : :Chapter 09
01:22:21.311 : :Chapter 10
01:32:09.941 : :Chapter 11
01:41:55.609 : :Chapter 12
01:51:37.857 : :Chapter 13
01:59:21.028 : :Chapter 14
02:02:17.830 : :Chapter 15





pb.wtf



Скачать Тихоокеанский рубеж 3D через торрент http://trueimages.ru/img/ff/7e/399fe725.jpg Скачать фильм Тихоокеанский рубеж 3D через торрент бесплантно в хорошем качестве Описание:Когда из морских глубин поднялись легионы чудовищ, известных как Кайдзу, началась война, которой суждено было забрать миллионы ... 9.8 10 81
Info! Золотая раздача, скачанное не засчитывается.
Торрент: Зарегистрирован [2014-01-09 21:00] · скачан: 2 090 раз
Статус: √ проверено
Размер: 11.38 GB
Как cкачать? Как скачать Тихоокеанский рубеж 3D через торрент | UTorrent

% Раздел Тема Автор DL S | L
3D Фильмы [ 13.16 GB ] Тихоокеанский рубеж 2 3Д / Pacific Rim Uprising 3D [2018 BDRip 1080p] [Локализованная версия] [Half OverUnder / Вертикальная анаморфная стереопара] DUB bober100 Скачать
1 | 0


Последний раз редактировалось: GEKADOL (2013-11-10 04:26), всего редактировалось 4 раз(а)

28-11-2019 20:33  

Отключить всю рекламу на сайте

10-11-2013 04:21 Тихоокеанский рубеж 3D Скачать торрент  

Добавьте люди добрые до золота)))) pb.wtf



10-11-2013 04:34 Тихоокеанский рубеж 3D Скачать торрент  

Бред какой то как так меня на раздаче нет?

И это только начало)) pb.wtf



10-11-2013 06:05 Тихоокеанский рубеж 3D Скачать торрент  

на 3D тв работает ?pb.wtf



10-11-2013 06:07 Тихоокеанский рубеж 3D Скачать торрент  

а то на другой раздаче пишут: ВНИМАНИЕ ! На встроенных ТВ-плеерах работать не будет!!!pb.wtf



10-11-2013 08:16 Тихоокеанский рубеж 3D Скачать торрент  

Работает. Смотрел на самсунге.pb.wtf



10-11-2013 08:31 Тихоокеанский рубеж 3D Скачать торрент  

спасибо; качаю.pb.wtf



10-11-2013 08:44 Тихоокеанский рубеж 3D Скачать торрент  

СКОРОСТИ ПОДДАЙТЕ ПЛИЗ.pb.wtf



12-11-2013 15:42 Тихоокеанский рубеж 3D Скачать торрент  

GEKADOL писал(а):

Бред какой то как так меня на раздаче нет?

И это только начало))

Ай спасибо, мил человек)pb.wtf



21-01-2014 15:29 Тихоокеанский рубеж 3D Скачать торрент  

СКОРОСТИ ПОДДАЙТЕpb.wtf



04-03-2014 20:01 Тихоокеанский рубеж 3D Скачать торрент  

даю на всех порах тянуть, тяните ребята! pb.wtf



30-07-2014 14:01 Тихоокеанский рубеж 3D Скачать торрент  

скоростиииии!!!!!!!!!!!плиз)pb.wtf



26-08-2015 08:34 Тихоокеанский рубеж 3D Скачать торрент  

Дайте скорости!!! плиззззззpb.wtf



04-11-2017 20:02 Тихоокеанский рубеж 3D Скачать торрент  

Дайте скорости, пожалуйста pb.wtf



    Дорогой пользователь! Огромная просьба, поблагодарите релизера, оцените раздачу и оставьте свои комментарий, если Вы скачали Тихоокеанский рубеж 3D через торрент бесплатно! Внесите свою лепту в развитие PiratBit!
    Комментировать посты могут только пользователи прошедшие не сложную регистрацию
    Показать сообщения:    

    Тихоокеанский рубеж 3D через торрент
    Скачать бесплатно Тихоокеанский рубеж 3D
    Тихоокеанский рубеж 3D скачать торрент
    Тихоокеанский рубеж 3D смотреть онлайн
    Cкачать фильм Тихоокеанский рубеж 3D бесплатно
    Тихоокеанский рубеж 3D скачать торрент в хорошем качестве
    Тихоокеанский рубеж 3D смотреть онлайн бесплатно в хорошем качестве


    Вы не можете начинать темы
    Вы не можете отвечать на сообщения
    Вы не можете редактировать свои сообщения
    Вы не можете удалять свои сообщения
    Вы не можете голосовать в опросах
    Вы не можете прикреплять файлы к сообщениям
    Вы можете скачивать файлы