Ссылка на приватное зеркало нашего сайта всего за 1$. Внимание количество ограничено!!!

2 сезон

iTunes

1 сезон

1

iTunes

iTunes

iTunes

1 сезон

RePack

30

ИГРА 18+

pack

ВАЖНО

!!Акция!!

Alien_RageХит недели

RePack

MK11
pack

Забери бонус

RePack

jed

!!Акция!!

Alien_Rage

RePack

fifa19

RePack

Assassins Creed: Odyssey

RePack

NEED FOR SPEED™ PAYBACK

4 сезон

9 сезон

Бесстыжие 9 сезон

Все сериалы

все сериалы на PB.wtf

RePack

FAR CRY 5
  

Жасмин / Blue Jasmine (Вуди Аллен / Woody Allen) [ 2013 , США , драма, комедия , BDRip 720p ] DUB pb.wtf

Жасмин через торрент pb.wtf

Размер: 6.27 GB | Добавлен: 6 лет 9 мес. назад | Торрент скачан:381 раз
Скачать  

10-01-2014 04:26 Жасмин Скачать торрент  


Жасмин / Blue Jasmine


  • Год выпуска:2013
  • Страна:США
  • Жанр:драма, комедия

  • Продолжительность: 01:38:25
  • Перевод:Профессиональный [Дубляж - iTunes Russia]

  • Субтитры: Английский
    • Режиссер:Вуди Аллен / Woody Allen
    • Сценарий: Вуди Аллен / Woody Allen
    • Продюсер: Летти Аронсон / Letty Aronson, Стивен Тененбаум / Stephen Tenenbaum, Эдвард Уолсон / Edward Walson, Хелен Робин / Helen Robin, Джек Роллинз / Jack Rollins

  • В ролях:Кейт Бланшетт (Jasmine), Салли Хокинс (Ginger), Алек Болдуин (Hal), Бобби Каннавале (Chili), Питер Сарсгаард (Dwight), Луис С.К. (Al), Эндрю Дайс Клэй (Augie), Дэниэл Дженкс (Matthew), Майкл Стулбарг (Dr. Flicker), Макс Рутерфорд (Johnny), Олден Эйренрайк (Danny), Джой Карлин (Woman on Plane)
    • Описание:
      После того как все в ее жизни разваливается на части, в том числе и брак с богатым бизнесменом, светская жительница Нью-Йорка Жасмин переезжает в скромную квартиру сестры в Сан-Франциско, чтобы попытаться взять себя в руки и жить дальше.


    • Качество:BDRip 720p
    • Формат:MKV
    • Видео кодек: AVC
    • Аудио кодек:DTS /AC3
    • Видео: AVC, 1280x534 (2.40:1), 7223 kbps, 23,976 fps, 0,441 bpp
    • Аудио №1: русский / AC3 / 5.1 / 48 kHz / 384 kbps / 16 bit ||
    • Аудио №2: английский / DTS / 5.1 / 48 kHz / 1510 kbps / 24 bit


    Код:

    General
    Unique ID                                : 229918759356770716102959845970737473352 (0xACF8BE0A22B5C3A1B392B7F3283DA748)
    Complete name                            : D:ТорентыBlue.Jasmine.2013.BDRip.720p.Rus.Eng.mkv
    Format                                   : Matroska
    Format version                           : Version 2
    File size                                : 6.27 GiB
    Duration                                 : 1h 38mn
    Overall bit rate                         : 9 118 Kbps
    Movie name                               : Blue.Jasmine.2013.BluRay.720p.DTS.x264-CHD
    Encoded date                             : UTC 2014-01-09 14:14:42
    Writing application                      : mkvmerge v6.6.0 ('The Edge Of The In Between') built on Dec  1 2013 17:55:00
    Writing library                          : libebml v1.3.0 + libmatroska v1.4.1

    Video
    ID                                       : 1
    Format                                   : AVC
    Format/Info                              : Advanced Video Codec
    Format profile                           : High@L4.1
    Format settings, CABAC                   : Yes
    Format settings, ReFrames                : 11 frames
    Codec ID                                 : V_MPEG4/ISO/AVC
    Duration                                 : 1h 38mn
    Bit rate                                 : 7 223 Kbps
    Width                                    : 1 280 pixels
    Height                                   : 534 pixels
    Display aspect ratio                     : 2.40:1
    Frame rate                               : 23.976 fps
    Color space                              : YUV
    Chroma subsampling                       : 4:2:0
    Bit depth                                : 8 bits
    Scan type                                : Progressive
    Bits/(Pixel*Frame)                       : 0.441
    Stream size                              : 4.84 GiB (77%)
    Title                                    : Anonymous@CHD
    Writing library                          : x264 core 138 r2356 a1d3d17
    Encoding settings                        : cabac=1 / ref=11 / deblock=1:-3:-3 / analyse=0x3:0x113 / me=umh / subme=10 / psy=1 / psy_rd=1.00:0.05 / mixed_ref=1 / me_range=32 / chroma_me=1 / trellis=2 / 8x8dct=1 / cqm=0 / deadzone=21,11 / fast_pskip=0 / chroma_qp_offset=-2 / threads=18 / lookahead_threads=1 / sliced_threads=0 / nr=0 / decimate=1 / interlaced=0 / bluray_compat=0 / constrained_intra=0 / bframes=4 / b_pyramid=2 / b_adapt=2 / b_bias=0 / direct=3 / weightb=1 / open_gop=0 / weightp=2 / keyint=250 / keyint_min=23 / scenecut=40 / intra_refresh=0 / rc=2pass / mbtree=0 / bitrate=7223 / ratetol=1.0 / qcomp=0.70 / qpmin=0 / qpmax=69 / qpstep=4 / cplxblur=20.0 / qblur=0.5 / ip_ratio=1.40 / pb_ratio=1.30 / aq=2:0.90
    Language                                 : English
    Default                                  : Yes
    Forced                                   : No

    Audio #1
    ID                                       : 2
    Format                                   : AC-3
    Format/Info                              : Audio Coding 3
    Mode extension                           : CM (complete main)
    Codec ID                                 : A_AC3
    Duration                                 : 1h 38mn
    Bit rate mode                            : Constant
    Bit rate                                 : 384 Kbps
    Channel(s)                               : 6 channels
    Channel positions                        : Front: L C R, Side: L R, LFE
    Sampling rate                            : 48.0 KHz
    Bit depth                                : 16 bits
    Compression mode                         : Lossy
    Stream size                              : 270 MiB (4%)
    Language                                 : Russian
    Default                                  : Yes
    Forced                                   : No

    Audio #2
    ID                                       : 4
    Format                                   : DTS
    Format/Info                              : Digital Theater Systems
    Codec ID                                 : A_DTS
    Duration                                 : 1h 38mn
    Bit rate mode                            : Constant
    Bit rate                                 : 1 510 Kbps
    Channel(s)                               : 6 channels
    Channel positions                        : Front: L C R, Side: L R, LFE
    Sampling rate                            : 48.0 KHz
    Bit depth                                : 24 bits
    Compression mode                         : Lossy
    Stream size                              : 1.04 GiB (17%)
    Title                                    : English DTS 5.1 1509Kbps
    Language                                 : English
    Default                                  : No
    Forced                                   : No

    Text
    ID                                       : 3
    Format                                   : UTF-8
    Codec ID                                 : S_TEXT/UTF8
    Codec ID/Info                            : UTF-8 Plain Text
    Language                                 : English
    Default                                  : No
    Forced                                   : No

    Menu #1
    00:00:00.000                             : en:00:00:00.000
    00:07:01.254                             : en:00:07:01.254
    00:12:36.089                             : en:00:12:36.089
    00:18:37.992                             : en:00:18:37.992
    00:24:34.765                             : en:00:24:34.765
    00:30:16.231                             : en:00:30:16.231
    00:37:10.728                             : en:00:37:10.728
    00:41:18.017                             : en:00:41:18.017
    00:47:07.616                             : en:00:47:07.616
    00:53:33.419                             : en:00:53:33.419
    01:00:09.147                             : en:01:00:09.147
    01:05:10.406                             : en:01:05:10.406
    01:12:00.691                             : en:01:12:00.691
    01:17:59.174                             : en:01:17:59.174
    01:23:24.791                             : en:01:23:24.791
    01:29:52.137                             : en:01:29:52.137

    Menu #2
    00:00:00.000                             : en:00:00:00.000
    00:07:01.254                             : en:00:07:01.254
    00:12:36.089                             : en:00:12:36.089
    00:18:37.992                             : en:00:18:37.992
    00:24:34.765                             : en:00:24:34.765
    00:30:16.231                             : en:00:30:16.231
    00:37:10.728                             : en:00:37:10.728
    00:41:18.017                             : en:00:41:18.017
    00:47:07.616                             : en:00:47:07.616
    00:53:33.419                             : en:00:53:33.419
    01:00:09.147                             : en:01:00:09.147
    01:05:10.406                             : en:01:05:10.406
    01:12:00.691                             : en:01:12:00.691
    01:17:59.174                             : en:01:17:59.174
    01:23:24.791                             : en:01:23:24.791
    01:29:52.137                             : en:01:29:52.137


    Скриншоты:

    Трейлеры к фильмам [2014]

    © Оформление by Vetal
    pb.wtf



  • Скачать Жасмин через торрент http://pic.kartinco.top/images/6/ordi9.jpg Скачать фильм Жасмин через торрент бесплантно в хорошем качестве Описание:После того как все в ее жизни разваливается на части, в том числе и брак с богатым бизнесменом, светская жительница Нью-Йорка ... 10 10 10
    Info! Золотая раздача, скачанное не засчитывается.
    Торрент: Зарегистрирован [2014-01-10 04:26] · скачан: 381 раз
    Статус: √ проверено
    Размер: 6.27 GB
    Как cкачать? Как скачать Жасмин через торрент | qTorrent

    % Раздел Тема Автор DL S | L
    Фильмы [HD 720p, 1080p] (Хороший звук DUB, MVO) [ 9.24 GB ] Жасмин / Blue Jasmine [ 2013 BDRip 1080p ] DUB Ворон Скачать
    1 | 0


    Последний раз редактировалось: Ворон (2014-01-11 11:29), всего редактировалось 1 раз

    28-11-2019 20:33  

    Отключить всю рекламу на сайте

    10-01-2014 08:48 Жасмин Скачать торрент  

    Vetаl
    Большущее спасибо ! С фильмами-новинками часто ситуация как с хлебом в мультике "Царевна -лягушка " :
    Этим кирпичом – врагов убивать, этим камнем – сарай подпирать, этот хлеб – только в праздник есть .
    Этот фильм - только по праздникам смотреть , ибо он и есть праздник.
    Грустный ,тончайшим образом сыгранный праздник от Вуди Аллена и Кейт Бланшет.
    pb.wtf



      Дорогой пользователь! Огромная просьба, поблагодарите релизера, оцените раздачу и оставьте свои комментарий, если Вы скачали Жасмин через торрент бесплатно! Внесите свою лепту в развитие PiratBit!
      Комментировать посты могут только пользователи прошедшие не сложную регистрацию
      Показать сообщения:    

      Жасмин через торрент
      Скачать бесплатно Жасмин
      Жасмин скачать торрент
      Жасмин смотреть онлайн
      Cкачать фильм Жасмин бесплатно
      Жасмин скачать торрент в хорошем качестве
      Жасмин смотреть онлайн бесплатно в хорошем качестве


      Вы не можете начинать темы
      Вы не можете отвечать на сообщения
      Вы не можете редактировать свои сообщения
      Вы не можете удалять свои сообщения
      Вы не можете голосовать в опросах
      Вы не можете прикреплять файлы к сообщениям
      Вы можете скачивать файлы