2 сезон

iTunes

MVO

1

2 сезон

iTunes

iTunes

1 сезон

RePack

30

Новинка

ВАЖНО

ИГРА 18+

pack

RePack

MK11
pack

Легкие деньги

RePack

jed

RePack

fifa19

RePack

RDR2

RePack

NEED FOR SPEED™ PAYBACK

4 сезон

9 сезон

Бесстыжие 9 сезон

Все сериалы

все сериалы на PB.wtf

RePack

FAR CRY 5

Anonymous, доброй ночи, мы не успеваем собрать деньги на оплату серверов за декабрь и январь, помогите нам пожалуйста в это трудное время. В качестве благодарности мы отключим Вам всю рекламу на сайте (укажите свой ник в строку Ваше имя)!

×
  
Magnet ссылка

Дом войны / Warhouse (Люк Мэсси) [2013, ужасы, триллер, WEBDL-Rip] MVO [НТВ+] pb.wtf

Дом войны через торрент pb.wtf

Размер: 1.37 GB | Добавлен: 7 лет назад | Торрент скачан:1027 раз
Скачать  

10-01-2014 17:47 Дом войны Скачать торрент  


Дом войны / Warhouse


  • Год выпуска:2013
  • Страна:Великобритания
  • Жанр:ужасы, триллер
  • Продолжительность: 01:20:46
  • Перевод:Профессиональный (многоголосый, закадровый)[НТВ+]

  • Субтитры: Нет
    • Режиссер:Люк Мэсси / Luke Massey
    • Сценарий: Люк Мэсси / Luke Massey, Бенжамин Рид / Benjamin Read
    • Продюсер: Бенжамин Рид / Benjamin Read, Билли Бадд / Billy Budd, Леон Дейвис / Leon Davies, Люк Мэсси / Luke Massey

  • В ролях:Джозеф Морган (A.J. Budd), Мэтт Райан (Edward Sterling), Уильям Тротон (The Fallen), Аль Уивер (Gulf war soldier, в титрах не указан)
    • Описание:
      Моряк Эй Джи Бад просыпается в незнакомом доме, из которого нельзя выйти. Каждый день в одно и то же время появляется чудовище, которое пытается его убить. Не в силах найти объяснения происходящему, Бад обыскивает дом и находит дневник бывшего узника этой страшной тюрьмы.


    • Качество:WEB-DLRip
    • Формат:AVI
    • Видео кодек: XviD
    • Аудио кодек:AC3
    • Видео: XviD, 720x280 (2.571), 1957 kbps, 23,976 fps, 0,405 bpp
    • Аудио №1: AC3 / 2.0 / 48 kHz / 224 kbps / 16 bit- Русский
    • Аудио №2: AC3 / 2.0 / 48 kHz / 224 kbps / 16 bit - Aнглийский


    Код:

    General
    Complete name                            : D:ТорентыDom.voiny.2013.P.WEB-DLRip.avi
    Format                                   : AVI
    Format/Info                              : Audio Video Interleave
    File size                                : 1.37 GiB
    Duration                                 : 1h 20mn
    Overall bit rate                         : 2 420 Kbps
    Writing application                      : VirtualDubMod 1.5.10.2 (build 2540/release)
    Writing library                          : VirtualDubMod build 2540/release

    Video
    ID                                       : 0
    Format                                   : MPEG-4 Visual
    Format profile                           : Advanced Simple@L5
    Format settings, BVOP                    : 2
    Format settings, QPel                    : No
    Format settings, GMC                     : No warppoints
    Format settings, Matrix                  : Default (MPEG)
    Codec ID                                 : XVID
    Codec ID/Hint                            : XviD
    Duration                                 : 1h 20mn
    Bit rate                                 : 1 958 Kbps
    Width                                    : 720 pixels
    Height                                   : 280 pixels
    Display aspect ratio                     : 2.571
    Frame rate                               : 23.976 fps
    Color space                              : YUV
    Chroma subsampling                       : 4:2:0
    Bit depth                                : 8 bits
    Scan type                                : Progressive
    Compression mode                         : Lossy
    Bits/(Pixel*Frame)                       : 0.405
    Stream size                              : 1.10 GiB (81%)
    Writing library                          : XviD 1.2.1 (UTC 2008-12-04)

    Audio #1
    ID                                       : 1
    Format                                   : AC-3
    Format/Info                              : Audio Coding 3
    Mode extension                           : CM (complete main)
    Codec ID                                 : 2000
    Duration                                 : 1h 20mn
    Bit rate mode                            : Constant
    Bit rate                                 : 224 Kbps
    Channel(s)                               : 2 channels
    Channel positions                        : Front: L R
    Sampling rate                            : 48.0 KHz
    Bit depth                                : 16 bits
    Compression mode                         : Lossy
    Stream size                              : 129 MiB (9%)
    Alignment                                : Split accross interleaves
    Interleave, duration                     : 42 ms (1.00 video frame)
    Interleave, preload duration             : 500 ms

    Audio #2
    ID                                       : 2
    Format                                   : AC-3
    Format/Info                              : Audio Coding 3
    Mode extension                           : CM (complete main)
    Codec ID                                 : 2000
    Duration                                 : 1h 20mn
    Bit rate mode                            : Constant
    Bit rate                                 : 224 Kbps
    Channel(s)                               : 2 channels
    Channel positions                        : Front: L R
    Sampling rate                            : 48.0 KHz
    Bit depth                                : 16 bits
    Compression mode                         : Lossy
    Stream size                              : 129 MiB (9%)
    Alignment                                : Split accross interleaves
    Interleave, duration                     : 42 ms (1.00 video frame)
    Interleave, preload duration             : 500 ms


    Скриншоты:

    Трейлеры к фильмам [2014]

    © Оформление by Vetal
    pb.wtf



  • Скачать Дом войны через торрент http://pic.kartinco.top/images/6/ordi9.jpg Скачать фильм Дом войны через торрент бесплантно в хорошем качестве Описание:Моряк Эй Джи Бад просыпается в незнакомом доме, из которого нельзя выйти. Каждый день в одно и то же время появляется чудовище, ... 9.5 10 26
    Info! Золотая раздача, скачанное не засчитывается.
    Торрент: Зарегистрирован [2014-01-10 17:47] · скачан: 1 027 раз
    Статус: √ проверено
    Размер: 1.37 GB
    Как cкачать? Как скачать Дом войны через торрент | UTorrent

    % Раздел Тема Автор DL S | L
    Фильмы 2013 [DVDrip, WEB-DLRip, HDrip] [ 1.45 GB ] Дом войны / Warhouse / Armistice [2013 WEB-DLRip-AVC] DVO sokol_ok Скачать
    3 | 0

    28-11-2019 20:33  

    Отключить всю рекламу на сайте

    10-01-2014 18:31 Дом войны Скачать торрент  

    кто смотрел фильм??pb.wtf



    12-01-2014 17:26 Дом войны Скачать торрент  

    Для особо одарённых: Warehouse переводится как склад или хранилище, видимо гг очнулся в каком-то чуханском складе, но качать не стану, ибо не голд раздача, и не охото тратить на такое рейтинг.pb.wtf



    14-01-2014 06:14 Дом войны Скачать торрент  

    Gorgoneus писал(а):

    Для особо одарённых: Warehouse переводится как склад или хранилище, видимо гг очнулся в каком-то чуханском складе, но качать не стану, ибо не голд раздача, и не охото тратить на такое рейтинг.

    как будто можно подумать, что у тебя очень большой рейтинг... я имею ввиду, что там и терять то нечего)))pb.wtf



    14-01-2014 08:10 Дом войны Скачать торрент  

    Как фильмpb.wtf



    14-01-2014 12:52 Дом войны Скачать торрент  

    Фильм вынос мозга =) но мне понравился, только до конца не понял какого он вообще делал в этом доме. догадки есть, но смотрите сами.pb.wtf



    14-01-2014 16:21 Дом войны Скачать торрент  

    Gorgoneus писал(а):

    Для особо одарённых: Warehouse переводится как склад или хранилище, видимо гг очнулся в каком-то чуханском складе, но качать не стану, ибо не голд раздача, и не охото тратить на такое рейтинг.

    внимательно название прочитай. Warhouse а не warEhouse. одаренный..
    а если судить по названию на "обложке" то фильм вообще называется Перемириеpb.wtf



    14-01-2014 22:17 Дом войны Скачать торрент  

    Ни хрена не понятный фильм... весь этот дом это его предсмертный бред?pb.wtf



    16-01-2014 14:21 Дом войны Скачать торрент  

    Фильм конечно дичка но что-то в нем есть) вообще я как понял это мини ада для солдата было и он из него выбирался всяко )на 4 с минусом из 5pb.wtf



    18-01-2014 21:47 Дом войны Скачать торрент  

    Фильм - любительский грайндхаус, причем очень бюджетный даже для отрасли (та же камера - полупрофессиональная). Думаю что не понравится большинству фанатов b-movie, не говоря уже про обычного зрителя. Режиссер/сценарист пытался выдать что-то филосовского толка закрутив это на хорроре, в итоге же получилось скучно и не сказать что интересно (как и не страшно, впрочем). В общем, не советовал бы любителям грайндхауса, а тем более юным фанатам "Аватаров".pb.wtf



    19-01-2014 10:32 Дом войны Скачать торрент  

    Бред контуженого режесера-фильм для афганцев и десантников недобитых, бутылкой по голове!!!pb.wtf



      Дорогой пользователь! Огромная просьба, поблагодарите релизера, оцените раздачу и оставьте свои комментарий, если Вы скачали Дом войны через торрент бесплатно! Внесите свою лепту в развитие PiratBit!
      Комментировать посты могут только пользователи прошедшие не сложную регистрацию
      Показать сообщения:    

      Дом войны через торрент
      Скачать бесплатно Дом войны
      Дом войны скачать торрент
      Дом войны смотреть онлайн
      Cкачать фильм Дом войны бесплатно
      Дом войны скачать торрент в хорошем качестве
      Дом войны смотреть онлайн бесплатно в хорошем качестве


      Вы не можете начинать темы
      Вы не можете отвечать на сообщения
      Вы не можете редактировать свои сообщения
      Вы не можете удалять свои сообщения
      Вы не можете голосовать в опросах
      Вы не можете прикреплять файлы к сообщениям
      Вы можете скачивать файлы