Ссылка на приватное зеркало нашего сайта всего за 1$. Внимание количество ограничено!!!

2 сезон

iTunes

1 сезон

1

iTunes

iTunes

iTunes

1 сезон

RePack

30

ИГРА 18+

pack

ВАЖНО

!!Акция!!

Alien_RageХит недели

RePack

MK11
pack

Забери бонус

RePack

jed

!!Акция!!

Alien_Rage

RePack

fifa19

RePack

Assassins Creed: Odyssey

RePack

NEED FOR SPEED™ PAYBACK

4 сезон

9 сезон

Бесстыжие 9 сезон

Все сериалы

все сериалы на PB.wtf

RePack

FAR CRY 5
  

Три мушкетера (Сергей Жигунов) [ 2013 , Россия , приключения , HDRip ] pb.wtf

Три мушкетера через торрент pb.wtf

Размер: 1.37 GB | Добавлен: 6 лет 9 мес. назад | Торрент скачан:290 раз
Скачать  

11-01-2014 06:10 Три мушкетера Скачать торрент  


Три мушкетера

«Всё за любовь!»

  • Год выпуска:2013
  • Страна:Россия
  • Жанр:приключения
  • Продолжительность: 02:03:30
  • Перевод:Не требуется

  • Субтитры: Нет
    • Режиссер:Сергей Жигунов
    • Сценарий: Сергей Жигунов, Андрей Житков
    • Продюсер: Игорь Куйда, Сергей Жигунов, Вадим Швец, Татьяна Прожико, Катерина Ульрихова

  • В ролях:Риналь Мухаметов (д'Артаньян), Юрий Чурсин (Атос), Алексей Макаров (Портос), Павел Баршак (Арамис), Екатерина Вилкова (миледи), Анна Старшенбаум (Констанция Бонасье), Василий Лановой (кардинал Ришелье), Филипп Янковский (Людовик XIII), Константин Лавроненко (герцог Бекингэм), Мария Миронова (Анна Австрийская), Владимир Зайцев (Рошфор), Александр Лыков (де Тревиль)
    • Описание:
      «Три мушкетера» - это история о юном гасконце Д’Артаньяне, который, не познав всех радостей любви, оказывается втянут в водоворот политических интриг королевского двора Людовика XIII. В роте королевских мушкетеров Де Тревиля он находит себе верных друзей Атоса, Портоса и Арамиса. Мушкетеры настолько поражены кипучей энергией гасконца и его умением находить неприятности, что принимают самое живое участие не только в многочисленных стычках с гвардейцами кардинала, но и в личной судьбе Д’Артаньяна.
      Благодаря друзьям Д’Артаньян находит свою первую любовь - Констанцию Бонасье и ввязывается в опаснейшую историю с подвесками Королевы. Тонкий и дальновидный политик кардинал Ришелье и его подручные Рошфор и Миледи обретают в лице Д’Артаньяна опаснейшего врага. Во имя любви он готов на самые отчаянные подвиги. На пути Д’Артаньяна немало опасных соблазнов и искушений. Но он их все преодолеет, не предав своей дружбы и любви!

    Мировая премьера:14 ноября 2013 Бюджет:$12 000 000
    • Качество:HDRip
    • Формат:AVI
    • Видео кодек: XviD
    • Аудио кодек:AC3
    • Видео: XviD, 720x400 (16:9), 1128 kbps, 24 fps, 0,163 bpp
    • Аудио: AC3 / 5.1 / 48 kHz / 448 kbps / 16 bit

    Код:

    General
    Complete name                            : D:ТорентыThRee.Musketera.2013.O.HDRip.1400Mb.avi
    Format                                   : AVI
    Format/Info                              : Audio Video Interleave
    File size                                : 1.37 GiB
    Duration                                 : 2h 3mn
    Overall bit rate                         : 1 586 Kbps
    Writing application                      : VirtualDubMod 1.5.10.2 (build 2540/release)
    Writing library                          : VirtualDubMod build 2540/release

    Video
    ID                                       : 0
    Format                                   : MPEG-4 Visual
    Format profile                           : Advanced Simple@L5
    Format settings, BVOP                    : 2
    Format settings, QPel                    : No
    Format settings, GMC                     : No warppoints
    Format settings, Matrix                  : Custom
    Codec ID                                 : XVID
    Codec ID/Hint                            : XviD
    Duration                                 : 2h 3mn
    Bit rate                                 : 1 129 Kbps
    Width                                    : 720 pixels
    Height                                   : 400 pixels
    Display aspect ratio                     : 16:9
    Frame rate                               : 24.000 fps
    Color space                              : YUV
    Chroma subsampling                       : 4:2:0
    Bit depth                                : 8 bits
    Scan type                                : Progressive
    Compression mode                         : Lossy
    Bits/(Pixel*Frame)                       : 0.163
    Stream size                              : 997 MiB (71%)
    Writing library                          : XviD 1.2.1 (UTC 2008-12-04)

    Audio
    ID                                       : 1
    Format                                   : AC-3
    Format/Info                              : Audio Coding 3
    Mode extension                           : CM (complete main)
    Codec ID                                 : 2000
    Duration                                 : 2h 3mn
    Bit rate mode                            : Constant
    Bit rate                                 : 448 Kbps
    Channel(s)                               : 6 channels
    Channel positions                        : Front: L C R, Side: L R, LFE
    Sampling rate                            : 48.0 KHz
    Bit depth                                : 16 bits
    Compression mode                         : Lossy
    Stream size                              : 396 MiB (28%)
    Alignment                                : Split accross interleaves
    Interleave, duration                     : 42 ms (1.00 video frame)
    Interleave, preload duration             : 500 ms


    Скриншоты:

    Трейлеры к фильмам [2014]

    © Оформление by Vetal
    pb.wtf



  • Скачать Три мушкетера через торрент http://pic.kartinco.top/images/6/ordi9.jpg Скачать фильм Три мушкетера через торрент бесплантно в хорошем качестве Описание:«Три мушкетера» - это история о юном гасконце Д’Артаньяне, который, не познав всех радостей любви, оказывается втянут в водоворот ... 10 10 7
    Info! Золотая раздача, скачанное не засчитывается.
    Торрент: Зарегистрирован [2014-01-11 06:10] · скачан: 290 раз
    Статус: √ проверено
    Размер: 1.37 GB
    Как cкачать? Как скачать Три мушкетера через торрент | qTorrent

    % Раздел Тема Автор DL S | L
    Фильмы (Blu-ray, BD-Remux, HDDVD) [ 21.91 GB ] Сексуальные трех мушкетеров / Die Sex-Abenteuer der drei Musketiere / The Sex-Adventures of the three Musketeers [1971 эротика BDRemux 1080p] [AVO] killermax2013 Скачать
    1 | 0
    Фильмы с авторской озвучкой [ 1.46 GB ] Д'Артаньян и три мушкетера. 300 лет спустя / Реальные кабаны / Wild Hogs [2007 Смешной перевод HDRip] [AVO] killermax2013 Скачать
    1 | 0
    Фильмы до 2000 г. [ 3.94 GB ] Три мушкетера / Les trois mousquetaires [1961 исторический Telesync > DVD] [Советская прокатная копия] killermax2013 Скачать
    1 | 0
    Классика зарубежного кино [ 2.43 GB ] Три мушкетера / The Three Musketeers [1948 DVDRip-AVC ] от ExKinoRay dumbia Скачать
    1 | 0
    Иностранные мультфильмы [ 1.37 GB ] Барби и три мушкетера / Barbie and the Three Musketeers [2009 мультфильм DVDRip] L_E_X Скачать
    1 | 0
    Наши фильмы (HD, WEB-DL 720p, 1080p) [ 14.41 GB ] Д`Артаньян и три мушкетёра [1979 Музыкальный HDTV1080p] Оригинал Бумер Скачать
    1 | 0
    Наши сериалы [ 5.18 GB ] Три мушкетера / Сезон: 1 / Серии:10 из 10 [2013 экранизация SATRip] Ворон Скачать
    1 | 0

    28-11-2019 20:33  

    Отключить всю рекламу на сайте

    11-01-2014 08:46 Три мушкетера Скачать торрент  

    Ну не знаю (фильм ещё не смотрел), насколько можно удивить этой историей, затёртой всеми киноиндустриями мира, со времён существования кинематографа.pb.wtf



      Дорогой пользователь! Огромная просьба, поблагодарите релизера, оцените раздачу и оставьте свои комментарий, если Вы скачали Три мушкетера через торрент бесплатно! Внесите свою лепту в развитие PiratBit!
      Комментировать посты могут только пользователи прошедшие не сложную регистрацию
      Показать сообщения:    

      Три мушкетера через торрент
      Скачать бесплатно Три мушкетера
      Три мушкетера скачать торрент
      Три мушкетера смотреть онлайн
      Cкачать фильм Три мушкетера бесплатно
      Три мушкетера скачать торрент в хорошем качестве
      Три мушкетера смотреть онлайн бесплатно в хорошем качестве


      Вы не можете начинать темы
      Вы не можете отвечать на сообщения
      Вы не можете редактировать свои сообщения
      Вы не можете удалять свои сообщения
      Вы не можете голосовать в опросах
      Вы не можете прикреплять файлы к сообщениям
      Вы можете скачивать файлы