2 сезон

iTunes

MVO

1

2 сезон

iTunes

iTunes

1 сезон

RePack

30

Новинка

ВАЖНО

ИГРА 18+

pack

RePack

MK11
pack

Легкие деньги

RePack

jed

RePack

fifa19

RePack

RDR2

RePack

NEED FOR SPEED™ PAYBACK

4 сезон

9 сезон

Бесстыжие 9 сезон

Все сериалы

все сериалы на PB.wtf

RePack

FAR CRY 5

Anonymous, доброй ночи, мы не успеваем собрать деньги на оплату серверов за декабрь и январь, помогите нам пожалуйста в это трудное время. В качестве благодарности мы отключим Вам всю рекламу на сайте (укажите свой ник в строку Ваше имя)!

×
  
Magnet ссылка

ЗЛО 2 / V/H/S/2 (Саймон Баррет / Simon Barrett, Джейсон Айзенер/ Jason Eisener) [2013 г., Ужасы, триллер, BDRip-AVC] Dub (R5) + Original + Sub (rus., eng.) pb.wtf

ЗЛО 2 через торрент pb.wtf

Размер: 2.1 GB | Добавлен: 7 лет назад | Торрент скачан:572 раза
Скачать  

11-01-2014 08:13 ЗЛО 2 Скачать торрент  

ЗЛО 2 / V/H/S/2
Год выпуска: 2013
Страна: США, Канада, Индонезия / Bloody Disgusting, Collective, The, Pictureshow Productions
Жанр: Ужасы, триллер,
Продолжительность: 01:35:42
Перевод: Дубляж [Лицензия]
Субтитры: Русские, английские

Режиссер: Саймон Баррет / Simon Barrett Джейсон Айзенер/ Jason Eisener



В ролях: Келси Эбботт, Ханна Аль, Рашид Фахри, Албар Ока, Антара Девон, Мари Берт, Саманта Грейси, Коллинз Холт, Ханна Хьюз, Кевин Хант, Эпи Куснандар,

Описание: В поисках пропавшего студента, пара частных детективов вламывается в его дом, где они находят коллекцию кассет VHS. Обнаружив ужасающие кадры на каждой из них, они понимают, что за исчезновением студента кроются страшные мотивы…

Качество: BDRip-AVC
Формат: MKV
Видео кодек: H.264
Аудио кодек: AC3
Видео: 960x540 (16:9), 24,000 fps, 2503 Кbps, 0.201 bit/pixel
Аудио#1: 48 kHz, AC3 Dolby Digital, 3/2 (L,C,R,l,r) + LFE ch, 256.00 kbps | RUS
Аудио#2: 48 kHz, AC3 Dolby Digital, 3/2 (L,C,R,l,r) + LFE ch, 384.00 kbps | ENG

Релиз группы:
Автор рипа: potroks

Общее
Уникальный идентификатор : 207859049305877986457083121599447565656 (0x9C60325CB37622808445366DFB000558)
Полное имя : Zlo.2.2013.DUAL.BDRip.x264.-HELLYWOOD.mkv
Формат : Matroska
Версия формата : Version 4 / Version 2
Размер файла : 2,10 Гбайт
Продолжительность : 1 ч. 35 м.
Общий поток : 3146 Кбит/сек
Название фильма : HELLYWOOD - rip by potroks
Дата кодирования : UTC 2014-01-11 07:44:04
Программа кодирования : mkvmerge v5.9.0 ('On The Loose') built on Dec 15 2012 16:39:58
Библиотека кодирования : libebml v1.3.0 + libmatroska v1.4.0

Видео
Идентификатор : 1
Формат : AVC
Формат/Информация : Advanced Video Codec
Профиль формата : High@L4.1
Параметр CABAC формата : Да
Параметр ReFrames формата : 12 кадров
Идентификатор кодека : V_MPEG4/ISO/AVC
Продолжительность : 1 ч. 35 м.
Битрейт : 2503 Кбит/сек
Ширина : 960 пикселей
Высота : 540 пикселей
Соотношение сторон : 16:9
Режим частоты кадров : Постоянный
Частота кадров : 23,976 кадра/сек
Цветовое пространство : YUV
Субдискретизация насыщенности : 4:2:0
Битовая глубина : 8 бит
Тип развёртки : Прогрессивная
Бит/(Пиксели*Кадры) : 0.201
Размер потока : 1,63 Гбайт (78%)
Заголовок : V/H/S/2
Библиотека кодирования : x264 core 130 r2273 b3065e6
Настройки программы : cabac=1 / ref=12 / deblock=1:-2:-2 / analyse=0x3:0x133 / me=umh / subme=9 / psy=1 / psy_rd=1.03:0.00 / mixed_ref=1 / me_range=48 / chroma_me=1 / trellis=2 / 8x8dct=1 / cqm=0 / deadzone=21,11 / fast_pskip=0 / chroma_qp_offset=-2 / threads=12 / lookahead_threads=3 / sliced_threads=0 / nr=0 / decimate=0 / interlaced=0 / bluray_compat=0 / constrained_intra=0 / bframes=13 / b_pyramid=2 / b_adapt=2 / b_bias=0 / direct=3 / weightb=1 / open_gop=0 / weightp=2 / keyint=240 / keyint_min=23 / scenecut=40 / intra_refresh=0 / rc_lookahead=60 / rc=2pass / mbtree=0 / bitrate=2503 / ratetol=1.0 / qcomp=0.70 / qpmin=0 / qpmax=69 / qpstep=4 / cplxblur=20.0 / qblur=0.5 / vbv_maxrate=20000 / vbv_bufsize=25000 / nal_hrd=none / ip_ratio=1.35 / pb_ratio=1.40 / aq=1:0.90
Язык : English
Default : Да
Forced : Нет

Аудио #1
Идентификатор : 2
Формат : AC-3
Формат/Информация : Audio Coding 3
Расширение режима : CM (complete main)
Параметр Endianness формата : Big
Идентификатор кодека : A_AC3
Продолжительность : 1 ч. 35 м.
Вид битрейта : Постоянный
Битрейт : 256 Кбит/сек
Каналы : 6 каналов
Расположение каналов : Front: L C R, Side: L R, LFE
Частота : 48,0 КГц
Битовая глубина : 16 бит
Метод сжатия : С потерями
Размер потока : 175 Мбайт (8%)
Заголовок : Dub | DD 5.1 @ 256 kbps
Язык : Russian
Default : Да
Forced : Да

Аудио #2
Идентификатор : 3
Формат : AC-3
Формат/Информация : Audio Coding 3
Расширение режима : CM (complete main)
Параметр Endianness формата : Big
Идентификатор кодека : A_AC3
Продолжительность : 1 ч. 35 м.
Вид битрейта : Постоянный
Битрейт : 384 Кбит/сек
Каналы : 6 каналов
Расположение каналов : Front: L C R, Side: L R, LFE
Частота : 48,0 КГц
Битовая глубина : 16 бит
Метод сжатия : С потерями
Размер потока : 263 Мбайт (12%)
Заголовок : Original | DD 5.1 @ 384 kbps
Язык : English
Default : Нет
Forced : Нет

Текст #1
Идентификатор : 4
Формат : UTF-8
Идентификатор кодека : S_TEXT/UTF8
Идентификатор кодека/Информация : UTF-8 Plain Text
Заголовок : SDH
Язык : Russian
Default : Нет
Forced : Нет

Текст #2
Идентификатор : 5
Формат : UTF-8
Идентификатор кодека : S_TEXT/UTF8
Идентификатор кодека/Информация : UTF-8 Plain Text
Язык : English
Default : Нет
Forced : Нет

pb.wtf



Скачать ЗЛО 2 через торрент http://i57.fastpic.ru/big/2014/0111/62/e1486146f3908087007449e04906c462.jpg Скачать фильм ЗЛО 2 через торрент бесплантно в хорошем качестве Описание: В поисках пропавшего студента, пара частных детективов вламывается в его дом, где они находят коллекцию кассет VHS. Обнаружив ... 9.5 10 17
Info! Золотая раздача, скачанное не засчитывается.
Торрент: Зарегистрирован [2014-01-11 08:13] · скачан: 572 раз
Статус: √ проверено
Размер: 2.1 GB
Как cкачать? Как скачать ЗЛО 2 через торрент | UTorrent

% Раздел Тема Автор DL S | L
Фильмы 2013 [DVDrip, WEB-DLRip, HDrip] [ 1.46 GB ] ЗЛО 2 / V/H/S/2 [2013 HDRip ] MihailHD Скачать
1 | 0

28-11-2019 20:33  

Отключить всю рекламу на сайте

11-01-2014 08:28 ЗЛО 2 Скачать торрент  

третий скрин конечно отличный)
а по фильму - слабенький он плучилсяpb.wtf



11-01-2014 08:48 ЗЛО 2 Скачать торрент  

Rudar писал(а):

третий скрин конечно отличный)
а по фильму - слабенький он плучился

Согласенpb.wtf



11-01-2014 09:49 ЗЛО 2 Скачать торрент  

Полный бред!pb.wtf



12-01-2014 13:56 ЗЛО 2 Скачать торрент  

Тема сисег раскрыта :rofle:pb.wtf



17-01-2014 05:14 ЗЛО 2 Скачать торрент  

Редкостная хрень.pb.wtf



    Дорогой пользователь! Огромная просьба, поблагодарите релизера, оцените раздачу и оставьте свои комментарий, если Вы скачали ЗЛО 2 через торрент бесплатно! Внесите свою лепту в развитие PiratBit!
    Комментировать посты могут только пользователи прошедшие не сложную регистрацию
    Показать сообщения:    

    ЗЛО 2 через торрент
    Скачать бесплатно ЗЛО 2
    ЗЛО 2 скачать торрент
    ЗЛО 2 смотреть онлайн
    Cкачать фильм ЗЛО 2 бесплатно
    ЗЛО 2 скачать торрент в хорошем качестве
    ЗЛО 2 смотреть онлайн бесплатно в хорошем качестве


    Вы не можете начинать темы
    Вы не можете отвечать на сообщения
    Вы не можете редактировать свои сообщения
    Вы не можете удалять свои сообщения
    Вы не можете голосовать в опросах
    Вы не можете прикреплять файлы к сообщениям
    Вы можете скачивать файлы