2 сезон

iTunes

1 сезон

1

iTunes

iTunes

iTunes

1 сезон

RePack

30

ИГРА 18+

pack

ВАЖНО

!!Акция!!

Alien_RageХит недели

RePack

MK11
pack

Забери бонус

RePack

jed

!!Акция!!

Alien_Rage

RePack

fifa19

RePack

Assassins Creed: Odyssey

RePack

NEED FOR SPEED™ PAYBACK

4 сезон

9 сезон

Бесстыжие 9 сезон

Все сериалы

все сериалы на PB.wtf

RePack

FAR CRY 5
  

Три мушкетера (Сергей Жигунов) [2013 г., приключения, BDRip, Лицензия] pb.wtf

Три мушкетера через торрент pb.wtf

Размер: 2.05 GB | Добавлен: 6 лет 9 мес. назад | Торрент скачан:110 раз
Скачать  

11-01-2014 11:10 Три мушкетера Скачать торрент  

Три мушкетера
Год выпуска: 2013
Страна: Россия
Жанр: приключения
Продолжительность: 02:03:30
Тип релиза: Лицензия

Режиссер: Сергей Жигунов



В ролях: Риналь Мухаметов, Юрий Чурсин, Алексей Макаров, Павел Баршак, Екатерина Вилкова, Анна Старшенбаум, Василий Лановой, Филипп Янковский, Константин Лавроненко, Мария Миронова,

Описание: «Три мушкетера» — это история о юном гасконце Д’Артаньяне, который, не познав всех радостей любви, оказывается втянут в водоворот политических интриг королевского двора Людовика XIII. В роте королевских мушкетеров Де Тревиля он находит себе верных друзей Атоса, Портоса и Арамиса. Мушкетеры настолько поражены кипучей энергией гасконца и его умением находить неприятности, что принимают самое живое участие не только в многочисленных стычках с гвардейцами кардинала, но и в личной судьбе Д’Артаньяна.

Благодаря друзьям Д’Артаньян находит свою первую любовь — Констанцию Бонасье и ввязывается в опаснейшую историю с подвесками Королевы. Тонкий и дальновидный политик кардинал Ришелье и его подручные Рошфор и Миледи обретают в лице Д’Артаньяна опаснейшего врага. Во имя любви он готов на самые отчаянные подвиги. На пути Д’Артаньяна немало опасных соблазнов и искушений. Но он их все преодолеет, не предав своей дружбы и любви!

Качество: BDRip (Рип с Blu-ray 1080p AVC DTS-HD 5.1)
Формат: AVI
Видео кодек: XviD
Аудио кодек: AC3
Видео: 720x400 (1.80:1), 24 fps, XviD build 50 ~1923 kbps avg, 0.28 bit/pixel
Аудио: 48 kHz, AC3 Dolby Digital, 3/2 (L,C,R,l,r) + LFE ch, ~448 kbps


Общее
Полное имя : G:киноThRee.Musketera.2013.BDRip.avi
Формат : AVI
Формат/Информация : Audio Video Interleave
Профиль формата : OpenDML
Размер файла : 2,05 Гбайт
Продолжительность : 2 ч. 3 м.
Общий поток : 2379 Кбит/сек
Программа кодирования : VirtualDubMod 1.5.10.2 (build 2540/release)
Библиотека кодирования : VirtualDubMod build 2540/release

Видео
Идентификатор : 0
Формат : MPEG-4 Visual
Профиль формата : Advanced Simple@L5
Параметр BVOP формата : 2
Параметр QPel формата : Нет
Параметр GMC формата : Без точки перехода
Параметр матрицы формата : Выборочная
Идентификатор кодека : XVID
Идентификатор кодека/Подсказка : XviD
Продолжительность : 2 ч. 3 м.
Битрейт : 1918 Кбит/сек
Ширина : 720 пикс.
Высота : 400 пикс.
Соотношение сторон : 16:9
Частота кадров : 24,000 кадр/сек
Цветовое пространство : YUV
Подвыборка цветности : 4:2:0
Битовая глубина : 8 бит
Тип развёртки : Прогрессивная
Метод сжатия : С потерями
Бит/(Пиксели*Кадры) : 0.278
Размер потока : 1,66 Гбайт (81%)
Библиотека кодирования : XviD 1.2.1 (UTC 2008-12-04)

Аудио
Идентификатор : 1
Формат : AC-3
Формат/Информация : Audio Coding 3
Расширение режима : CM (complete main)
Идентификатор кодека : 2000
Продолжительность : 2 ч. 3 м.
Вид битрейта : Постоянный
Битрейт : 448 Кбит/сек
Канал(ы) : 6 канала(ов)
Расположение каналов : Front: L C R, Side: L R, LFE
Частота : 48,0 КГц
Битовая глубина : 16 бит
Метод сжатия : С потерями
Размер потока : 396 Мбайт (19%)
Выравнивание : Разделение по промежуткам
Продолжительность промежутка : 42 мс. (1,00 видеокадр)
Время предзагрузки промежутка : 500 ms

pb.wtf



Скачать Три мушкетера через торрент http://pic.kartinco.top/images/6/hsgo2.jpg Скачать фильм Три мушкетера через торрент бесплантно в хорошем качестве Описание: «Три мушкетера» — это история о юном гасконце Д’Артаньяне, который, не познав всех радостей любви, оказывается втянут в водоворот ... 8.2 10 5
Info! Золотая раздача, скачанное не засчитывается.
Торрент: Зарегистрирован [2014-01-11 11:10] · скачан: 110 раз
Статус: √ проверено
Размер: 2.05 GB
Как cкачать? Как скачать Три мушкетера через торрент | qTorrent

% Раздел Тема Автор DL S | L
Фильмы (Blu-ray, BD-Remux, HDDVD) [ 21.91 GB ] Сексуальные трех мушкетеров / Die Sex-Abenteuer der drei Musketiere / The Sex-Adventures of the three Musketeers [1971 эротика BDRemux 1080p] [AVO] killermax2013 Скачать
1 | 0
Фильмы с авторской озвучкой [ 1.46 GB ] Д'Артаньян и три мушкетера. 300 лет спустя / Реальные кабаны / Wild Hogs [2007 Смешной перевод HDRip] [AVO] killermax2013 Скачать
1 | 0
Фильмы до 2000 г. [ 3.94 GB ] Три мушкетера / Les trois mousquetaires [1961 исторический Telesync > DVD] [Советская прокатная копия] killermax2013 Скачать
1 | 0
Классика зарубежного кино [ 2.43 GB ] Три мушкетера / The Three Musketeers [1948 DVDRip-AVC ] от ExKinoRay dumbia Скачать
1 | 0
Иностранные мультфильмы [ 1.37 GB ] Барби и три мушкетера / Barbie and the Three Musketeers [2009 мультфильм DVDRip] L_E_X Скачать
1 | 0
Наши фильмы (HD, WEB-DL 720p, 1080p) [ 14.41 GB ] Д`Артаньян и три мушкетёра [1979 Музыкальный HDTV1080p] Оригинал Бумер Скачать
1 | 0
Наши сериалы [ 5.18 GB ] Три мушкетера / Сезон: 1 / Серии:10 из 10 [2013 экранизация SATRip] Ворон Скачать
1 | 0

28-11-2019 20:33  

Отключить всю рекламу на сайте

11-01-2014 13:35 Три мушкетера Скачать торрент  

как фильм, кто смотрел? Стоит ли скачивать? :сonn:pb.wtf



    Дорогой пользователь! Огромная просьба, поблагодарите релизера, оцените раздачу и оставьте свои комментарий, если Вы скачали Три мушкетера через торрент бесплатно! Внесите свою лепту в развитие PiratBit!
    Комментировать посты могут только пользователи прошедшие не сложную регистрацию
    Показать сообщения:    

    Три мушкетера через торрент
    Скачать бесплатно Три мушкетера
    Три мушкетера скачать торрент
    Три мушкетера смотреть онлайн
    Cкачать фильм Три мушкетера бесплатно
    Три мушкетера скачать торрент в хорошем качестве
    Три мушкетера смотреть онлайн бесплатно в хорошем качестве


    Вы не можете начинать темы
    Вы не можете отвечать на сообщения
    Вы не можете редактировать свои сообщения
    Вы не можете удалять свои сообщения
    Вы не можете голосовать в опросах
    Вы не можете прикреплять файлы к сообщениям
    Вы можете скачивать файлы