Мега распродажа FORZA HORIZON 4 ULTIMATE+ВСЕ DLC+ОНЛАЙН всего за 499р. 349 руб. (супер цена). Внимание количество ограничено!!!

Лицензия

30

iTunes

мы

iTunes

1

1 сезон

Чернобыль

1 сезон

Ральф против интернета

MVO

Покемон. Детектив Пикачу

8 сезон

Игра престолов

iTunes

1+1

ИГРА 18+

pack

ВАЖНО

!!Акция!!

Alien_RageХит недели

RePack

Resident Evil 21
pack

RePack

Metro:Exodus

!!Акция!!

Alien_Rage

RePack

fifa19

RePack

Assassins Creed: Odyssey

RePack

NEED FOR SPEED™ PAYBACK

3 сезон

9 сезон

Бесстыжие 9 сезон

Все сериалы

все сериалы на PB.wtf

RePack

FAR CRY 5
Ребята, катастрофически не хватает 2730р. для оплаты серверов за МАЙ (всвязи с блокировками трафик упал в 3 раза), 1-2р., выручайте.
  

Вечерний квартал - Лучшее Выпуск [01-05] [2014 г., Юмористическое шоу, концерт, SATRip, Оригинал] pb.wtf

Скачать  

12-01-2014 07:49 Вечерний квартал - Лучшее Выпуск Скачать торрент  

Вечерний квартал - Лучшее [01-05] (2014) SATRip
Год выпуска: 2014
Страна: Украина
Жанр: Юмористическое шоу, концерт,
Продолжительность: 1 выпуск 02:19:33; 2 выпуск 02:19:15; 3 выпуск 2:24:45; 4 выпуск 2:42:13; 5 выпуск 3:19:20
Перевод: Оригинал

Режиссер: Студия 95 квартал телеканал 1+1

В ролях: Владимир Зеленский, Юрий Крапов, Денис Манжосов, Елена Кравец, Евгений Кошевой, Сергей Казанин, Александр Пикалов, Юрий Корявченков, Аркадий Лапухин,

Описание: Однажды веселые ребята из "95-го квартала" решили отметить свой переезд из родного Кривого Рога в Киев, а заодно 10-летие команды новым шоу. Коллектив подобрался душевный, "с огоньком", гости - сплошь знаменитые, а столичная публика - щедрая на аплодисменты. Так родилась самая смешная и популярная передача на отечественном телевидении - "Вечерний квартал". Идея шоу проста: в городе N есть некий модный квартал, в котором тусуются девять смешных жителей. Остальные просто приходят к ним в гости. Правда, гости не совсем обычные: среди них встречаются и богатые, и знаменитые, политики, и дизайнеры, и поп-звезды. Главный критерий - наличие здорового чувства юмора. Без него - никак, так как гостей здесь встречают не хлебом-солью, а розыгрышами и подколками, а те в свою очередь участвуют в скетчах и исполняют музыкальные или танцевальные номера.

Доп. информация: Даты эфиров:

06.01.2014
07.01.2014
08.01.2014
09.01.2014
10.01.2014

Качество: SATRip
Формат: AVI
Видео кодек: XviD
Аудио кодек: MPEG Audio
Видео: XviD, 720x544, 25.00fps, 2121 Кбит/сек
Аудио#1: 48 kHz, MPEG Layer 3, 2 ch, 192.00 kbps avg



General
Format : AVI
Format/Info : Audio Video Interleave
File size : 1.95 GiB
Duration : 2h 19mn
Overall bit rate : 2 003 Kbps
Writing application : VirtualDubMod 1.5.10.3 | www.virtualdub-fr.org || (build 2550/release)
Writing library : VirtualDubMod build 2550/release

Video
ID : 0
Format : MPEG-4 Visual
Format profile : Advanced Simple@L5
Format settings, BVOP : Yes
Format settings, QPel : No
Format settings, GMC : No warppoints
Format settings, Matrix : Default (H.263)
Codec ID : XVID
Codec ID/Hint : XviD
Duration : 2h 19mn
Bit rate : 1 801 Kbps
Width : 720 pixels
Height : 544 pixels
Display aspect ratio : 4:3
Frame rate : 25.000 fps
Color space : YUV
Chroma subsampling : 4:2:0
Bit depth : 8 bits
Scan type : Progressive
Compression mode : Lossy
Bits/(Pixel*Frame) : 0.184
Stream size : 1.76 GiB (90%)
Writing library : XviD 1.2.1 (UTC 2008-12-04)

Audio
ID : 1
Format : MPEG Audio
Format version : Version 1
Format profile : Layer 3
Mode : Joint stereo
Mode extension : MS Stereo
Codec ID : 55
Codec ID/Hint : MP3
Duration : 2h 19mn
Bit rate mode : Constant
Bit rate : 192 Kbps
Channel count : 2 channels
Sampling rate : 48.0 KHz
Compression mode : Lossy
Stream size : 192 MiB (10%)
Alignment : Aligned on interleaves
Interleave, duration : 40 ms (1.00 video frame)
Interleave, preload duration : 504 ms
Writing library : LAME3.99r
Encoding settings : -m j -V 4 -q 2 -lowpass 18.6 -b 192


Квартал 95 скачать торрент


pb.wtf



Скачать
Чтобы иметь возможность скачивать с Торрент Трекера, нужно Зарегистрироваться

Как скачивать  ·  Рейтинг и ограничения



Последний раз редактировалось: Exelero (2014-01-12 08:02), всего редактировалось 1 раз


>> Регистрируемся здесь <<






Отзывы и комментарии о схеме читаем и пишем здесь: ---> Отзывы и комментарии о схеме

Новые благодарочки в телеграм довольных пользователей:
скриншот   скриншот   скриншот   скриншот   скриншот

12-01-2014 08:05 Вечерний квартал - Лучшее Выпуск Скачать торрент  

Exelero писал(а):

Продолжительность: ~02:20:00 / выпуск

Время каждого выпуска указываем отдельно.
Exelero
Помогу раздать, есть на диске.pb.wtf



12-01-2014 08:11 Вечерний квартал - Лучшее Выпуск Скачать торрент  

Vetаl писал(а):

Exelero писал(а):

Продолжительность: ~02:20:00 / выпуск

Время каждого выпуска указываем отдельно.
Exelero
Помогу раздать, есть на диске.

Пасиба!pb.wtf



12-01-2014 10:26 Вечерний квартал - Лучшее Выпуск Скачать торрент  

Мне 51 год.Но тащусь от этих ребят.Нам бы в России такую студию, чтобы резали правду матку о наших властителях.pb.wtf



12-01-2014 10:51 Вечерний квартал - Лучшее Выпуск Скачать торрент  

smok62 писал(а):

России такую студию, чтобы резали правду матку о наших властителях.

Ага потом ребят порежут))) у нас они себе могут позволить что угодно и с кого угодно гнать, но крыша у них есть по любом, вот только не понятно кто если по сути они смеются о всех))pb.wtf



12-01-2014 10:56 Вечерний квартал - Лучшее Выпуск Скачать торрент  

Vetаl писал(а):

вот только не понятно кто если по сути они смеются о всех))

Я думаю, особо никакой крыши нет. Лёгкое осмеивание правящей власти на ТВ- одна из полит.технологий. Беларусов не берём. :)pb.wtf



    Дорогой пользователь! Огромная просьба, поблагодарите релизера, оцените раздачу и оставьте свои комментарий, если Вы скачали Вечерний квартал - Лучшее Выпуск через торрент бесплатно! Внесите свою лепту в развитие PiratBit!
    Комментировать посты могут только пользователи прошедшие не сложную регистрацию
    Показать сообщения:    

    Вечерний квартал - Лучшее Выпуск через торрент
    Скачать бесплатно Вечерний квартал - Лучшее Выпуск
    Вечерний квартал - Лучшее Выпуск скачать торрент
    Вечерний квартал - Лучшее Выпуск смотреть онлайн
    Cкачать фильм Вечерний квартал - Лучшее Выпуск бесплатно
    Вечерний квартал - Лучшее Выпуск скачать торрент в хорошем качестве
    Вечерний квартал - Лучшее Выпуск смотреть онлайн бесплатно в хорошем качестве


    Вы не можете начинать темы
    Вы не можете отвечать на сообщения
    Вы не можете редактировать свои сообщения
    Вы не можете удалять свои сообщения
    Вы не можете голосовать в опросах
    Вы не можете прикреплять файлы к сообщениям
    Вы не можете скачивать файлы