Достать ножи: Стеклянная луковица

MVO

Добыча

Дубляж

Уэнсдэй

1 сезон

Тор

Дубляж

13 клиническая

1 сезон

Жестокая ночь

MVO

Одни из нас

1 сезон

Deluxe

pack

Рекомендуем

30

Пиратка

ВАЖНО

ВАЖНО

Ghostwire

Пиратка

jed

RePack

nioh2

RePack

RDR2

RePack

NEED FOR SPEED™ PAYBACK

RePack

скачать торрент

Кинопоиск HD

Острые козырьки 6 сезон

6 сезон

FAR CRY 6

RePack

скачать торрент

Лицензия

скачать торрент

MVO

1

1 сезон

скачать торрент

1 сезон

скачать торрент

Лицензия

  

Петля времени / Looper (Райан Джонсон / Rian Johnson) [ 2012 , США, Китай , фантастика, боевик, триллер , HDRip ] Дубляж - Лицензия

Петля времени через торрент pb.wtf

Размер: 1.48 GB | Добавлен: 9 лет назад | Торрент скачан:1421 раз
Смотреть онлайн | Скачать | Поддержите нас   

12-01-2014 08:17 Петля времени Скачать торрент  

Петля времени / Looper

«В плену будущего. В плену прошлого»

Год выпуска:2012
Страна:США, Китай
Жанр:фантастика, боевик, триллер, криминал

Продолжительность: 01:58:53
Перевод:Профессиональный [Дубляж - Лицензия]

Субтитры: Нет
    Режиссер:Райан Джонсон / Rian Johnson
    Сценарий: Райан Джонсон / Rian Johnson
    Продюсер: Рэм Бергман / Ram Bergman, Джеймс Д. Штерн / James D. Stern, Питер Шлессель / Peter Schlessel, Лукас Смит / Lucas Smith, Бинг Ву / Bing Wu

В ролях:Джозеф Гордон-Левитт (Joe), Брюс Уиллис (Old Joe), Эмили Блант (Sara), Джефф Дэниелс (Abe), Ной Сеган (Kid Blue), Пол Дано (Seth), Гаррет Диллахант (Jesse), Пайпер Перабо (Suzie), Трейси Томс (Beatrix), Пирс Гэнон (Cid), Цин Сюй (Old Joe's Wife), Фрэнк Бреннан (Old Seth)
    Описание:
    В недалеком будущем, где стали возможны путешествия во времени, некая корпорация убирает нежелательных людей, отправляя их в прошлое. Задача принимающей стороны - убить жертву, стерев тем самым несчастного из истории.

Мировая премьера:6 сентября 2012 Бюджет:$30 000 000
    Качество:HDRip
    Формат:AVI
    Видео кодек: XviD
    Аудио кодек:AC3
    Видео: XviD, 720x304 (2.35:1), ~1389 kbps, 23,976 fps,
    Аудио: AC3 / 5.1 / 48 kHz / 384 kbps / 16 bit

Код:

General
Complete name                            : D:ТорентыPetlya.Vremeni_HDRip_[scarabey.org].avi
Format                                   : AVI
Format/Info                              : Audio Video Interleave
File size                                : 1.48 GiB
Duration                                 : 1h 58mn
Overall bit rate                         : 1 783 Kbps
Writing application                      : VirtualDubMod 1.5.10.2 (build 2540/release)
Writing library                          : VirtualDubMod build 2540/release

Video
ID                                       : 0
Format                                   : MPEG-4 Visual
Format profile                           : Advanced [email protected]
Format settings, BVOP                    : 1
Format settings, QPel                    : No
Format settings, GMC                     : No warppoints
Format settings, Matrix                  : Custom
Codec ID                                 : XVID
Codec ID/Hint                            : XviD
Duration                                 : 1h 58mn
Bit rate                                 : ~1389 Kbps
Width                                    : 720 pixels
Height                                   : 304 pixels
Display aspect ratio                     : 2.35:1
Frame rate                               : 23.976 fps
Color space                              : YUV
Chroma subsampling                       : 4:2:0
Bit depth                                : 8 bits
Scan type                                : Progressive
Compression mode                         : Lossy
Bits/(Pixel*Frame)                       : 0.251
Stream size                              : 1.10 GiB (74%)
Writing library                          : XviD 1.2.1 (UTC 2008-12-04)

Audio
ID                                       : 1
Format                                   : AC-3
Format/Info                              : Audio Coding 3
Mode extension                           : CM (complete main)
Codec ID                                 : 2000
Duration                                 : 1h 58mn
Bit rate mode                            : Constant
Bit rate                                 : 384 Kbps
Channel(s)                               : 6 channels
Channel positions                        : Front: L C R, Side: L R, LFE
Sampling rate                            : 48.0 KHz
Bit depth                                : 16 bits
Compression mode                         : Lossy
Stream size                              : 326 MiB (22%)
Alignment                                : Split accross interleaves


Скриншоты:

Трейлеры к фильмам [2014]

© Оформление by Vetal



Скачать Петля времени через торрент http://i2-imageban-ru.translate.goog/out/2014/01/12/4e2855e9139bb5cf5be14b8a1d80a8dd.png Скачать, смотреть онлайн Петля времени бесплантно в хорошем качестве Описание:В недалеком будущем, где стали возможны путешествия во времени, некая корпорация убирает нежелательных людей, отправляя их в ... 9.7 10 22
Info! Золотая раздача, скачанное не засчитывается.
Торрент: Зарегистрирован [2014-01-12 08:26] · скачан: 1 421 раз
Статус: √ проверено
Размер: 1.48 GB
Как cкачать? Как скачать Петля времени через торрент | UTorrent

28-11-2019 20:33  


Отключить вcю реклaмy на сайте, в т.ч. и в плеере онлайн просмотра!

12-01-2014 08:55 Петля времени Скачать торрент  

фильм - .



12-01-2014 09:43 Петля времени Скачать торрент  

Фильм довольно интересный. Но на мой взгляд, Брюс Уиллис испортил фильм своей ролью. Ну не подходит он для таких фильмов.



12-01-2014 10:41 Петля времени Скачать торрент  

Классный фильм.



    Дорогой пользователь! Огромная просьба, поблагодарите релизера, оцените раздачу и оставьте свои комментарий, если Вы скачали Петля времени через торрент бесплатно!!
    Комментировать посты могут только пользователи прошедшие не сложную регистрацию
    Показать сообщения:    


    Петля времени через торрент
    Скачать бесплатно Петля времени
    Петля времени скачать торрент
    Петля времени смотреть онлайн
    Cкачать фильм Петля времени бесплатно
    Петля времени скачать торрент в хорошем качестве
    Петля времени смотреть онлайн бесплатно в хорошем качестве
    Вы не можете начинать темы
    Вы не можете отвечать на сообщения
    Вы не можете редактировать свои сообщения
    Вы не можете удалять свои сообщения
    Вы не можете голосовать в опросах
    Вы не можете прикреплять файлы к сообщениям
    Вы можете скачивать файлы
    Петля времени / Looper [ 2012 , США, Китай , фантастика, боевик, триллер , HDRip ] Дубляж - Лицензия смотреть онлайн, скачать торрент picoco.icu