Ссылка на приватное зеркало нашего сайта всего за 1$. Внимание количество ограничено!!!

2 сезон

iTunes

1 сезон

1

iTunes

iTunes

iTunes

1 сезон

RePack

30

ИГРА 18+

pack

ВАЖНО

!!Акция!!

Alien_RageХит недели

RePack

MK11
pack

Забери бонус

RePack

jed

!!Акция!!

Alien_Rage

RePack

fifa19

RePack

Assassins Creed: Odyssey

RePack

NEED FOR SPEED™ PAYBACK

4 сезон

9 сезон

Бесстыжие 9 сезон

Все сериалы

все сериалы на PB.wtf

RePack

FAR CRY 5
  

Дримс (Антон Сухарев) [2013 г., Драма, Комедия, Музыкальный, WEB-DLRip] pb.wtf

Дримс через торрент pb.wtf

Размер: 1.37 GB | Добавлен: 6 лет 9 мес. назад | Торрент скачан:174 раза
Скачать  

13-01-2014 05:06 Дримс Скачать торрент  

Дримс
Год выпуска: 2013
Страна: Россия, Wise Vision
Жанр: Драма, Комедия, Музыкальный
Продолжительность: 01:29:48
Режиссер: Антон Сухарев
Продюссер: Антон Сухарев, Ярослав Кузин
Сценарий: Алексей Платунов
Бюджет: $12 000
Премьера в мире: 1 октября 2013

В ролях: Дэн Дягилев, Анна Иванина, Юозас Будрайтис, Александр Баширов, Игорь Скляр, Ольга Альбанова, Татьяна Рябоконь, Хельга Филиппова, Вадим Сквирский, Сергей Уманов
Описание: Дэн — уличный музыкант-неудачник, живущий воспоминаниями о временах своей молодости. Он ловит попутные машины, намеренно превращая свою жизнь в бесконечный роад-муви, Одиссею на руинах своих грёз. Его путь — это рокерская «мечта с кровью», мечта мальчишек перестройки, звучащая из подворотен голосами Цоя и Шевчука, Башлачёва и Летова… Ему уже под сорок, а он всё ещё с гитарой за спиной, в стоптанных кедах играет в переходах свои надрывные песни. Аня — начинающая певица, неловкая и смешная, добрая и открытая миру, ранимая, но, одновременно, стойкая. На её пути к мечте немало препятствий — бессмысленные кастинги, вечное безденежье, скитания по общежитиям. Но «ребёнок», живущий внутри Ани помогает ей сохранить себя и заразить своим вдохновением окружающих. Встретятся ли герои со своей мечтой?
Качество: WEB-DLRip
Формат: AVI
Видео кодек: XviD
Аудио кодек: AC3
Видео: XviD, 1945 kb/s, 720x400, 24 fps, 0.281 Bits/Pixel
Аудио: AC3, 224 kb/s (2 ch), 44.1 KHz
скриншот  скриншот  скриншот  скриншот  скриншот  скриншот  

D:ФильмыDrims.2013.WEBDLRip.1400Mb.avi
General
Complete name : D:ФильмыDrims.2013.WEBDLRip.1400Mb.avi
Format : AVI
Format/Info : Audio Video Interleave
File size : 1.37 GiB
Duration : 1h 29mn
Overall bit rate : 2 179 Kbps
Writing application : VirtualDubMod 1.5.10.3 | www.virtualdub-fr.org || (build 2550/release)
Writing library : VirtualDubMod build 2550/release
Video #0
ID : 0
Format : MPEG-4 Visual
Format profile : Advanced Simple@L5
Format settings, BVOP : 1
Format settings, QPel : No
Format settings, GMC : No warppoints
Format settings, Matrix : Custom
Codec ID : XVID
Codec ID/Hint : XviD
Duration : 1h 29mn
Bit rate : 1 945 Kbps
Width : 720 pixels
Height : 400 pixels
Display aspect ratio : 16:9
Frame rate : 24.000 fps
Color space : YUV
Chroma subsampling : 4:2:0
Bit depth : 8 bits
Scan type : Progressive
Compression mode : Lossy
Bits/(Pixel*Frame) : 0.281
Stream size : 1.22 GiB (89%)
Writing library : XviD 1.2.1 (UTC 2008-12-04)
Audio #1
ID : 1
Format : AC-3
Format/Info : Audio Coding 3
Mode extension : CM (complete main)
Format settings, Endianness : Big
Codec ID : 2000
Duration : 1h 29mn
Bit rate mode : Constant
Bit rate : 224 Kbps
Channel(s) : 2 channels
Channel positions : Front: L R
Sampling rate : 44.1 KHz
Bit depth : 16 bits
Compression mode : Lossy
Stream size : 144 MiB (10%)
Alignment : Split accross interleaves
Interleave, duration : 42 ms (1.00 video frame)
Interleave, preload duration : 500 ms


Дримс скачать торрент


pb.wtf



Скачать Дримс через торрент http://pic.kartinco.top/images/6/jydji.jpg Скачать фильм Дримс через торрент бесплантно в хорошем качестве Описание: Дэн — уличный музыкант-неудачник, живущий воспоминаниями о временах своей молодости. Он ловит попутные машины, намеренно ... 10 10 5
Info! Золотая раздача, скачанное не засчитывается.
Торрент: Зарегистрирован [2014-01-13 05:06] · скачан: 174 раз
Статус: √ проверено
Размер: 1.37 GB
Как cкачать? Как скачать Дримс через торрент | qTorrent

28-11-2019 20:33  

Отключить всю рекламу на сайте

13-01-2014 06:00 Дримс Скачать торрент  

Бюджет фильма-12.000$.Скляр,Будрайтис,Баширов и проч.снимались за спасибо и суп?Качаю из чистого любопытства,что же можно снять на эти"деньги"?pb.wtf



    Дорогой пользователь! Огромная просьба, поблагодарите релизера, оцените раздачу и оставьте свои комментарий, если Вы скачали Дримс через торрент бесплатно! Внесите свою лепту в развитие PiratBit!
    Комментировать посты могут только пользователи прошедшие не сложную регистрацию
    Показать сообщения:    

    Дримс через торрент
    Скачать бесплатно Дримс
    Дримс скачать торрент
    Дримс смотреть онлайн
    Cкачать фильм Дримс бесплатно
    Дримс скачать торрент в хорошем качестве
    Дримс смотреть онлайн бесплатно в хорошем качестве


    Вы не можете начинать темы
    Вы не можете отвечать на сообщения
    Вы не можете редактировать свои сообщения
    Вы не можете удалять свои сообщения
    Вы не можете голосовать в опросах
    Вы не можете прикреплять файлы к сообщениям
    Вы можете скачивать файлы