2 сезон

iTunes

MVO

1

2 сезон

iTunes

iTunes

1 сезон

RePack

30

Новинка

ВАЖНО

ИГРА 18+

pack

RePack

MK11
pack

Легкие деньги

RePack

jed

RePack

fifa19

RePack

RDR2

RePack

NEED FOR SPEED™ PAYBACK

4 сезон

9 сезон

Бесстыжие 9 сезон

Все сериалы

все сериалы на PB.wtf

RePack

FAR CRY 5

Anonymous, добрый день, мы не успеваем собрать деньги на оплату серверов за декабрь и январь, помогите нам пожалуйста в это трудное время. В качестве благодарности мы отключим Вам всю рекламу на сайте (укажите свой ник в строку Ваше имя)!

×
  
Magnet ссылка

Metallica: Сквозь невозможное / Metallica: Through the Never (Нимрод Антал) [2013 г., мюзикл, музыка, приключения, BDRip 1080p 3D, Оригинал ENG] Full OverUnder / Вертикальная стереопара pb.wtf

Metallica: Сквозь невозможное через торрент pb.wtf

Размер: 12.13 GB | Добавлен: 4 года 10 мес. назад | Торрент скачан:60 раз
Скачать  

13-01-2014 10:33 Metallica: Сквозь невозможное Скачать торрент  


Metallica: Сквозь невозможное / Metallica Through the Never

«Experience Metallica like never before»

Год выпуска:2013
Страна:США
Жанр:мюзикл, музыка, приключения
Продолжительность: 01:32:45
Перевод:Оригинал ENG/Перевод не требуется
Субтитры: Нет
Режиссер::Нимрод Антал / Nimród Antal
В ролях:Дэйн ДеХаан (Trip), Джеймс Хетфилд (играет самого себя), Ларс Ульрих (играет самого себя), Кирк Хеммет (играет самого себя), Роберт Трухильо (играет самого себя), Кайл Томсон (The Rider), Тоби Харгрейв (Big Man), МакКензи Грэй (Tall Man), Питер Брайант (Car Crash man), Хротгар Мэтьюз (Truck Driver), Джереми Рэймонд (Waving Man), Фрейзер Айтчесон (Police)

Описание:
Участник технической команды группы Metallica получает задание - привезти сумку, содержимое которой необходимо группе для выступления. Сопровождая таинственную сумку, он попадает в невероятные передряги. Картина представляет собой смесь игрового фильма и концерта.

    Качество:BDRip 1080p 3D (HOU)
    Формат 3D: OverUnder / Вертикальная стереопара
    Порядок ракурсов: левый ракурс первый
    Видео кодек: MKV
    Аудио кодек:DTS
    Видео: AVC, 1920x1080 (16:9), 23.976 fps, ~14,2 Мбит/сек
    Аудио 1: AC3 5.1, 640 kbps [Английский]
    Аудио 2: AC3 2.0, 448 kbps [Английский]
    Аудио 3: DTS 5.1, 1509 kbps [Английский]
    Аудио 4: DTS 2.0, 1509 kbps [Английский]

    Код:

    Общее
    Уникальный идентификатор : 172450590868659149317983245335934730758 (0x81BCC6937F2D093A9BC31F78DC670206)
    Полное имя : F:\my films\METALLICA_THROUGH_THE_NEVER_3D.mkv
    Формат : Matroska
    Версия формата : Version 2
    Размер файла : 12,1 Гбайт
    Продолжительность : 1 ч. 32 м.
    Общий поток : 18,7 Мбит/сек
    Название фильма : METALLICA_THROUGH_THE_NEVER_3D_CROP_O/U
    Дата кодирования : UTC 2014-01-14 17:56:44
    Программа кодирования : mkvmerge v5.7.0 ('The Whirlwind') built on Aug 7 2012 14:11:40
    Библиотека кодирования : libebml v1.2.3 + libmatroska v1.3.0

    Видео
    Идентификатор : 1
    Формат : AVC
    Формат/Информация : Advanced Video Codec
    Профиль формата : High@L4.1
    Параметр CABAC формата : Да
    Параметр ReFrames формата : 4 кадра
    Идентификатор кодека : V_MPEG4/ISO/AVC
    Продолжительность : 1 ч. 32 м.
    Битрейт : 14,2 Мбит/сек
    Ширина : 1920 пикселей
    Высота : 1080 пикселей
    Соотношение сторон : 16:9
    Режим частоты кадров : Постоянный
    Частота кадров : 23,976 кадра/сек
    Цветовое пространство : YUV
    Субдискретизация насыщенности : 4:2:0
    Битовая глубина : 8 бит
    Тип развёртки : Прогрессивная
    Бит/(Пиксели*Кадры) : 0.286
    Размер потока : 9,23 Гбайт (76%)
    Библиотека кодирования : x264 core 128 r2216M 198a7ea
    Настройки программы : cabac=1 / ref=4 / deblock=1:-3:-3 / analyse=0x3:0x133 / me=umh / subme=10 / psy=1 / psy_rd=1.00:0.15 / mixed_ref=1 / me_range=32 / chroma_me=1 / trellis=2 / 8x8dct=1 / cqm=0 / deadzone=21,11 / fast_pskip=1 / chroma_qp_offset=-3 / threads=8 / lookahead_threads=1 / sliced_threads=0 / nr=0 / decimate=1 / interlaced=0 / bluray_compat=0 / constrained_intra=0 / bframes=6 / b_pyramid=2 / b_adapt=2 / b_bias=0 / direct=3 / weightb=1 / open_gop=0 / weightp=2 / keyint=230 / keyint_min=23 / scenecut=40 / intra_refresh=0 / rc_lookahead=60 / rc=crf / mbtree=1 / crf=18.0 / qcomp=0.60 / qpmin=0 / qpmax=69 / qpstep=4 / vbv_maxrate=40000 / vbv_bufsize=30000 / crf_max=30.0 / nal_hrd=none / ip_ratio=1.40 / aq=1:0.70
    Default : Да
    Forced : Нет

    Аудио #1
    Идентификатор : 2
    Формат : AC-3
    Формат/Информация : Audio Coding 3
    Расширение режима : CM (complete main)
    Параметр Endianness формата : Big
    Идентификатор кодека : A_AC3
    Продолжительность : 1 ч. 32 м.
    Вид битрейта : Постоянный
    Битрейт : 640 Кбит/сек
    Каналы : 6 каналов
    Расположение каналов : Front: L C R, Side: L R, LFE
    Частота : 48,0 КГц
    Битовая глубина : 16 бит
    Метод сжатия : С потерями
    Размер потока : 425 Мбайт (3%)
    Заголовок : Original
    Язык : English
    Default : Да
    Forced : Нет

    Аудио #2
    Идентификатор : 3
    Формат : AC-3
    Формат/Информация : Audio Coding 3
    Расширение режима : CM (complete main)
    Параметр Endianness формата : Big
    Идентификатор кодека : A_AC3
    Продолжительность : 1 ч. 32 м.
    Вид битрейта : Постоянный
    Битрейт : 448 Кбит/сек
    Каналы : 2 канала
    Расположение каналов : Front: L R
    Частота : 48,0 КГц
    Битовая глубина : 16 бит
    Метод сжатия : С потерями
    Размер потока : 297 Мбайт (2%)
    Заголовок : Original
    Язык : English
    Default : Нет
    Forced : Нет

    Аудио #3
    Идентификатор : 4
    Формат : DTS
    Формат/Информация : Digital Theater Systems
    Режим : 16
    Параметр Endianness формата : Big
    Идентификатор кодека : A_DTS
    Продолжительность : 1 ч. 32 м.
    Вид битрейта : Постоянный
    Битрейт : 1509 Кбит/сек
    Каналы : 6 каналов
    Расположение каналов : Front: L C R, Side: L R, LFE
    Частота : 48,0 КГц
    Битовая глубина : 24 бит
    Метод сжатия : С потерями
    Размер потока : 1001 Мбайт (8%)
    Заголовок : Original
    Язык : English
    Default : Нет
    Forced : Нет

    Аудио #4
    Идентификатор : 5
    Формат : DTS
    Формат/Информация : Digital Theater Systems
    Режим : 16
    Параметр Endianness формата : Big
    Идентификатор кодека : A_DTS
    Продолжительность : 1 ч. 32 м.
    Вид битрейта : Постоянный
    Битрейт : 1509 Кбит/сек
    Каналы : 2 канала
    Расположение каналов : Front: L R
    Частота : 48,0 КГц
    Битовая глубина : 24 бит
    Метод сжатия : С потерями
    Размер потока : 1001 Мбайт (8%)
    Заголовок : Original
    Язык : English
    Default : Нет
    Forced : Нет

    Меню
    00:00:00.000 : en:(01)00:00:00:000
    00:03:48.228 : en:(02)00:03:48:228
    00:05:17.317 : en:(03)00:05:17:317
    00:10:56.155 : en:(04)00:10:56:155
    00:15:01.358 : en:(05)00:15:01:358
    00:19:34.965 : en:(06)00:19:34:965
    00:25:41.498 : en:(07)00:25:41:498
    00:34:43.956 : en:(08)00:34:43:956
    00:39:51.931 : en:(09)00:39:51:931
    00:41:25.274 : en:(10)00:41:25:274
    00:47:09.076 : en:(11)00:47:09:076
    00:55:25.697 : en:(12)00:55:25:697
    01:03:46.239 : en:(13)01:03:46:239
    01:07:02.059 : en:(14)01:07:02:059
    01:12:45.486 : en:(15)01:12:45:486
    01:19:27.429 : en:(16)01:19:27:429
    01:24:26.936 : en:(17)01:24:26:936
    01:32:44.600 : en:(18)01:32:44:600


    Скриншоты:

    Трейлеры к фильмам [2014]
    pb.wtf



Скачать Metallica: Сквозь невозможное через торрент http://pic.kartinco.top/images/6/ordi9.jpg Скачать фильм Metallica: Сквозь невозможное через торрент бесплантно в хорошем качестве Описание:Участник технической команды группы Metallica получает задание - привезти сумку, содержимое которой необходимо группе для ... 10 10 27
Info! Золотая раздача, скачанное не засчитывается.
Торрент: Зарегистрирован [2016-03-14 18:29] · скачан: 60 раз
Статус: √ проверено
Размер: 12.13 GB
Как cкачать? Как скачать Metallica: Сквозь невозможное через торрент | UTorrent



Последний раз редактировалось: Ворон (2016-03-14 18:29), всего редактировалось 2 раз(а)

28-11-2019 20:33  

Отключить всю рекламу на сайте

13-01-2014 11:01 Metallica: Сквозь невозможное Скачать торрент  

Отлично. посмотрим на сие творение. Посоны присоединяйтесь,тянем-потянем.pb.wtf



13-01-2014 11:06 Metallica: Сквозь невозможное Скачать торрент  

вот это подгон к праздничку yes yes yes ))) Vetаl, респект тебе и уважение )))pb.wtf



13-01-2014 11:09 Metallica: Сквозь невозможное Скачать торрент  

Серёжк@
pb.wtf



13-01-2014 11:31 Metallica: Сквозь невозможное Скачать торрент  

Vetаl, Огромное тебе спасибо!pb.wtf



04-01-2016 13:38 Metallica: Сквозь невозможное Скачать торрент  

спасибо огромное) жене кто то рассказал про этот фильм, весь мозг мне выгрызла)) забираю))pb.wtf



11-01-2016 09:59 Metallica: Сквозь невозможное Скачать торрент  

станьте на раздачу кто нить...выкачать целиком, неделю 25% висит....pb.wtf



14-03-2016 18:49 Metallica: Сквозь невозможное Скачать торрент  

Перевод прям вообще не требуется? Даже сабы?
Хотя я не прочь скачать, но у Найтвиш подобное кино с сабами было)pb.wtf



14-03-2016 21:35 Metallica: Сквозь невозможное Скачать торрент  

Смотрел в прошлом году. Такая какашка. Метла с каждым годом всё хуже и хуже. Лучше бы они распались после "Черного альбома"pb.wtf



15-03-2016 00:52 Metallica: Сквозь невозможное Скачать торрент  

смотрел с переводом-можно смотреть и так и так-в принципе понятно все и без словpb.wtf



    Дорогой пользователь! Огромная просьба, поблагодарите релизера, оцените раздачу и оставьте свои комментарий, если Вы скачали Metallica: Сквозь невозможное через торрент бесплатно! Внесите свою лепту в развитие PiratBit!
    Комментировать посты могут только пользователи прошедшие не сложную регистрацию
    Показать сообщения:    

    Metallica: Сквозь невозможное через торрент
    Скачать бесплатно Metallica: Сквозь невозможное
    Metallica: Сквозь невозможное скачать торрент
    Metallica: Сквозь невозможное смотреть онлайн
    Cкачать фильм Metallica: Сквозь невозможное бесплатно
    Metallica: Сквозь невозможное скачать торрент в хорошем качестве
    Metallica: Сквозь невозможное смотреть онлайн бесплатно в хорошем качестве


    Вы не можете начинать темы
    Вы не можете отвечать на сообщения
    Вы не можете редактировать свои сообщения
    Вы не можете удалять свои сообщения
    Вы не можете голосовать в опросах
    Вы не можете прикреплять файлы к сообщениям
    Вы можете скачивать файлы