Всегда рабочее зеркало без VPN и Proxy просто перед .vidak.icu напиши любое слово или цифру, Пример http://7v7h.vidak.icu

MVO

2 сезон

2 сезон

1

1 сезон

iTunes

2 сезон

13

1 сезон

Deluxe

pack

Рекомендуем

Пиратка

30

ВАЖНО

RePack

MK11

RePack

jed

RePack

fifa19

RePack

RDR2

RePack

NEED FOR SPEED™ PAYBACK

Кинопоиск HD

6 сезон

 Острые козырьки 6 сезон

Все сериалы

все сериалы на PB.wtf

RePack

FAR CRY 5

Anonymous, нам критически не хватает 5601 руб. на оплату серверов и переферии за Апрель, помоги нам пожалуйста, вся надежда только на тебя. В благодарность мы отключим тебе всю рекламу на сайте!

×
  
Magnet ссылка

Океан Ельзи.Концерт на чемоданах. [2013 г., Pop Rock, HDTVRip 1080p] pb.wtf

Океан Ельзи.Концерт на чемоданах. через торрент pb.wtf

Размер: 4.73 GB | Добавлен: 8 лет 4 мес. назад | Торрент скачан:162 раза
Смотреть онлайн Океан Ельзи.Концерт на чемоданах. | Скачать    Ребята, помогите собрать деньги на оплату серверов!!!

13-01-2014 14:26 Океан Ельзи.Концерт на чемоданах. Скачать торрент  

Океан Ельзи.Концерт на чемоданах.
Год выпуска: 2013
Страна: Россия/Украина
Жанр: Pop Rock,
Продолжительность: 00:50:32

Описание: 25 декабря 2013 г. в 18:00 в международном аэропорту «Шереметьево» (в терминале Д) для всех, кто улетал на рождественские и новогодние каникулы, сыграла группа «Океан Ельзи». Это уже традиционный новогодний сюрприз от телеканала ДОЖДЬ.
1. Там, де нас нема
2. Джульєтта
3. Відчуваю
4. На небi
5. Rendez-Vouz
6. Стріляй
7. Без бою
8. Я так хочу
9. Обійми.
Качество: HDTV1080p
Формат: TS
Видео кодек: H.264
Аудио кодек: MPEG Audio
Видео: AVC, 1920х1080, 16:9, 12,6 Мбит/сек, 25 fps
Аудио: MPEG Audio, 160 Кбит/сек, 48 КГц, 2 канала





General
ID : 16 (0x10)
Complete name : C:UsersEddyVideosТорентыOkean Elzy at Sheremetyevo. Concert on suitcases.ts
Format : MPEG-TS
File size : 4.73 GiB
Duration : 50mn 32s
Overall bit rate mode : Variable
Overall bit rate : 13.4 Mbps

Video
ID : 1601 (0x641)
Menu ID : 601 (0x259)
Format : AVC
Format/Info : Advanced Video Codec
Format profile : High@L4.0
Format settings, CABAC : Yes
Format settings, ReFrames : 3 frames
Codec ID : 27
Duration : 50mn 31s
Bit rate : 12.6 Mbps
Width : 1 920 pixels
Height : 1 080 pixels
Display aspect ratio : 16:9
Frame rate : 25.000 fps
Standard : PAL
Color space : YUV
Chroma subsampling : 4:2:0
Bit depth : 8 bits
Scan type : Interlaced
Scan order : Top Field First
Bits/(Pixel*Frame) : 0.243
Stream size : 4.44 GiB (94%)
Color primaries : BT.709
Transfer characteristics : BT.709
Matrix coefficients : BT.709

Audio
ID : 2601 (0xA29)
Menu ID : 601 (0x259)
Format : MPEG Audio
Format version : Version 1
Format profile : Layer 2
Codec ID : 4
Duration : 50mn 31s
Bit rate mode : Constant
Bit rate : 160 Kbps
Channel(s) : 2 channels
Sampling rate : 48.0 KHz
Compression mode : Lossy
Delay relative to video : 54ms
Stream size : 57.8 MiB (1%)
Language : std
Language, more info : Clean effects

pb.wtf



Скачать Океан Ельзи.Концерт на чемоданах. через торрент https://pic1.kartinco.top/images/61/mntvu.jpg Скачать, смотреть онлайн Океан Ельзи.Концерт на чемоданах. [2013 г., Pop Rock, HDTVRip 1080p] бесплантно в хорошем качестве Описание: 25 декабря 2013 г. в 18:00 в международном аэропорту «Шереметьево» (в терминале Д) для всех, кто улетал на рождественские и ... 7.2 10 5
Info! Золотая раздача, скачанное не засчитывается.
Торрент: Зарегистрирован [2014-01-13 14:26] · скачан: 162 раз
Статус: √ проверено
Размер: 4.73 GB
Как cкачать? Как скачать Океан Ельзи.Концерт на чемоданах. через торрент | UTorrent

28-11-2019 20:33  

Отключить всю рекламу на сайте

08-02-2014 15:52 Океан Ельзи.Концерт на чемоданах. Скачать торрент  

полное .ФАШИСТЫpb.wtf



11-02-2014 16:16 Океан Ельзи.Концерт на чемоданах. Скачать торрент  

vlad писал(а):

полное .ФАШИСТЫ

Точно-в Кремле засели.Держат оборону уже 14 лет,вцепились во Влacть как шакалы в падаль!pb.wtf



26-03-2014 18:11 Океан Ельзи.Концерт на чемоданах. Скачать торрент  

Давайте не будем путать политику с творчеством Вакарчука может он и пытался сделать Россию ближе, но своими словами чисто своим языком, почему мы не обвиняем сраную (америку) которая и развалила СССР и пытается НАС свами уничтожить может стоит задуматься !!!!!!!!!!!!!!!!!!!!!!!!!!!pb.wtf



    Дорогой пользователь! Огромная просьба, поблагодарите релизера, оцените раздачу и оставьте свои комментарий, если Вы скачали Океан Ельзи.Концерт на чемоданах. через торрент бесплатно!
    Комментировать посты могут только пользователи прошедшие не сложную регистрацию
    Показать сообщения:    

    Океан Ельзи.Концерт на чемоданах. через торрент
    Скачать бесплатно Океан Ельзи.Концерт на чемоданах.
    Океан Ельзи.Концерт на чемоданах. скачать торрент
    Океан Ельзи.Концерт на чемоданах. смотреть онлайн
    Cкачать фильм Океан Ельзи.Концерт на чемоданах. бесплатно
    Океан Ельзи.Концерт на чемоданах. скачать торрент в хорошем качестве
    Океан Ельзи.Концерт на чемоданах. смотреть онлайн бесплатно в хорошем качестве


    Вы не можете начинать темы
    Вы не можете отвечать на сообщения
    Вы не можете редактировать свои сообщения
    Вы не можете удалять свои сообщения
    Вы не можете голосовать в опросах
    Вы не можете прикреплять файлы к сообщениям
    Вы можете скачивать файлы