2 сезон

iTunes

MVO

1

2 сезон

iTunes

iTunes

1 сезон

RePack

30

Ultimate

ВАЖНО

ИГРА 18+

pack

RePack

MK11
pack

Легкие деньги

RePack

jed

RePack

fifa19

RePack

RDR2

RePack

NEED FOR SPEED™ PAYBACK

4 сезон

9 сезон

Бесстыжие 9 сезон

Все сериалы

все сериалы на PB.wtf

RePack

FAR CRY 5

Anonymous, добрый вечер, мы не успеваем собрать деньги на оплату серверов за декабрь и январь, помогите нам пожалуйста в это трудное время. В качестве благодарности мы отключим Вам всю рекламу на сайте (укажите свой ник в строку Ваше имя)!

×
  
Magnet ссылка

Диана: История любви / Diana (Оливер Хиршбигель) [2013 г.,драма, мелодрама, биография, WEB-DLRip, Дубляж] [iTunes/Russia] pb.wtf

Диана: История любви через торрент pb.wtf

Размер: 1.37 GB | Добавлен: 7 лет назад | Торрент скачан:815 раз
Скачать  

14-01-2014 23:10 Диана: История любви Скачать торрент  

Диана: История любви / Diana
Год выпуска: 2013
Страна: Великобритания, Франция, Швеция, Бельгия
Жанр: драма, мелодрама, биография
Продолжительность: 01:52:33
Перевод: Дубляж [iTunes/Russia]
Субтитры: нет

Режиссер: Оливер Хиршбигель
Продюссер: Роберт Бернштейн, Дуглас Рэй, Уолтер Эйрс
Сценарий: Стивен Джеффрис, Кейт Снелл

Бюджет: $335 359
Премьера в мире: 5 сентября 2013

IMDB 5.10 (3734)


В ролях: Наоми Уоттс, Навин Эндрюс, Дуглас Ходж, Джеральдин Джеймс, Чарльз Эдвардс, Дэниэл Пайрри, Кэс Анвар, Джульет Стивенсон, Джонатан Керриган, Лоуренс Белчер,

Описание: Принцесса Диана — самая популярная женщина своего времени, ещё при жизни названная «принцессой людских сердец». Она покорила сердца миллионов, ей признавались в любви все — от принца Англии до могущественных миллиардеров... Но кого любила она сама?Через несколько лет после расставания с принцем Чарльзом леди Диана почти забывает о личной жизни и посвящает себя общественной деятельности. Её график заполнен до предела, встречи и мероприятия идут нескончаемой чередой, пока, посещая одну из лондонских больниц, она случайно не знакомится с 36-летним кардиохирургом. Так начинается роман, ставший, по свидетельству многих друзей Дианы, «любовью всей её жизни». Официальные аудиенции в Кенсингтонском дворце и тайные свидания в ночных клубах, радость коротких встреч и боль расставаний, желание всегда быть вместе и стремление избежать огласки...

Качество: WEB-DLRip
Формат: AVI
Видео кодек: XviD
Аудио кодек: AC3
Видео: XviD, 720x400, 24.000 fps, 1 345 Kbps
Аудио#1: AC-3, 48.0 KHz, 6 ch, 384 Kbps
скриншот   скриншот   скриншот   скриншот  

Общее
Полное имя : D:ТорентыDiana.2013.D.WEB-DL.Rip.1400Mb.avi
Формат : AVI
Формат/Информация : Audio Video Interleave
Размер файла : 1,37 Гбайт
Продолжительность : 1 ч. 52 м.
Общий поток : 1738 Кбит/сек
Программа кодирования : VirtualDubMod 1.5.10.2 (build 2540/release)
Библиотека кодирования : VirtualDubMod build 2540/release

Видео
Идентификатор : 0
Формат : MPEG-4 Visual
Профиль формата : Advanced Simple@L5
Параметр BVOP формата : 2
Параметр QPel формата : Нет
Параметр GMC формата : Без точки перехода
Параметр матрицы формата : Выборочная
Идентификатор кодека : XVID
Идентификатор кодека/Подсказка : XviD
Продолжительность : 1 ч. 52 м.
Битрейт : 1345 Кбит/сек
Ширина : 720 пикселей
Высота : 400 пикселей
Соотношение сторон : 16:9
Частота кадров : 24,000 кадра/сек
Цветовое пространство : YUV
Субдискретизация насыщенности : 4:2:0
Битовая глубина : 8 бит
Тип развёртки : Прогрессивная
Метод сжатия : С потерями
Бит/(Пиксели*Кадры) : 0.195
Размер потока : 1,06 Гбайт (77%)
Библиотека кодирования : XviD 1.2.1 (UTC 2008-12-04)

Аудио
Идентификатор : 1
Формат : AC-3
Формат/Информация : Audio Coding 3
Расширение режима : CM (complete main)
Параметр Endianness формата : Big
Идентификатор кодека : 2000
Продолжительность : 1 ч. 52 м.
Вид битрейта : Постоянный
Битрейт : 384 Кбит/сек
Каналы : 6 каналов
Расположение каналов : Front: L C R, Side: L R, LFE
Частота : 48,0 КГц
Битовая глубина : 16 бит
Метод сжатия : С потерями
Размер потока : 309 Мбайт (22%)
Выравнивание : Разделение по промежуткам
Продолжительность промежутка : 42 мс. (1,00 видеокадр)
Время предзагрузки промежутка : 500 мс.


Диана: История любви скачать торрент


pb.wtf



Скачать Диана: История любви через торрент http://img856.imageshack.us/img856/9583/ub6b.png Скачать фильм Диана: История любви через торрент бесплантно в хорошем качестве Описание: Принцесса Диана — самая популярная женщина своего времени, ещё при жизни названная «принцессой людских сердец». Она покорила ... 9.4 10 22
Info! Золотая раздача, скачанное не засчитывается.
Торрент: Зарегистрирован [2014-01-14 23:10] · скачан: 815 раз
Статус: √ проверено
Размер: 1.37 GB
Как cкачать? Как скачать Диана: История любви через торрент | UTorrent

% Раздел Тема Автор DL S | L
Фильмы 2013 [DVDrip, WEB-DLRip, HDrip] [ 2.06 GB ] Диана: История любви / Diana [2013 биография BDRip ] coc900 Скачать
1 | 0
Фильмы 2013 [DVDrip, WEB-DLRip, HDrip] [ 1.46 GB ] Диана: История любви / Diana [2013 биография HDRip ||] кэп Скачать
2 | 0
Фильмы (DVD фильмы) [ 6.94 GB ] Диана: История любви / Diana [2013 биография DVD9] R5 voovaz Скачать
1 | 0
Фильмы (Blu-ray, BD-Remux, HDDVD) [ 14.77 GB ] Диана: История любви / Diana [ 2013 Швеция Бельгия биография BD Remux ] DUB [лицензия] Ворон Скачать
1 | 0
Фильмы 2013 [DVDrip, WEB-DLRip, HDrip] [ 2.05 GB ] Диана: История любви / Diana [2013 биография HDRip ||] кэп Скачать
1 | 0

28-11-2019 20:33  

Отключить всю рекламу на сайте

    Дорогой пользователь! Огромная просьба, поблагодарите релизера, оцените раздачу и оставьте свои комментарий, если Вы скачали Диана: История любви через торрент бесплатно! Внесите свою лепту в развитие PiratBit!
    Комментировать посты могут только пользователи прошедшие не сложную регистрацию
    Показать сообщения:    

    Диана: История любви через торрент
    Скачать бесплатно Диана: История любви
    Диана: История любви скачать торрент
    Диана: История любви смотреть онлайн
    Cкачать фильм Диана: История любви бесплатно
    Диана: История любви скачать торрент в хорошем качестве
    Диана: История любви смотреть онлайн бесплатно в хорошем качестве


    Вы не можете начинать темы
    Вы не можете отвечать на сообщения
    Вы не можете редактировать свои сообщения
    Вы не можете удалять свои сообщения
    Вы не можете голосовать в опросах
    Вы не можете прикреплять файлы к сообщениям
    Вы можете скачивать файлы