Ссылка на приватное зеркало нашего сайта всего за 1$. Внимание количество ограничено!!!

2 сезон

iTunes

1 сезон

1

iTunes

iTunes

iTunes

1 сезон

RePack

30

ИГРА 18+

pack

ВАЖНО

!!Акция!!

Alien_RageХит недели

RePack

MK11
pack

Забери бонус

RePack

jed

!!Акция!!

Alien_Rage

RePack

fifa19

RePack

Assassins Creed: Odyssey

RePack

NEED FOR SPEED™ PAYBACK

4 сезон

9 сезон

Бесстыжие 9 сезон

Все сериалы

все сериалы на PB.wtf

RePack

FAR CRY 5
  

Анна Герман. Тайна белого ангела / Сезон: 1 Серии: 1-10 из 10 (Вальдемар Кшистек, Александр Тименко) [2012, драма, биография, DVD9] R5 pb.wtf

Анна Герман. Тайна белого ангела через торрент pb.wtf

Размер: 15.04 GB | Добавлен: 8 лет 1 мес. назад | Торрент скачан:135 раз
Скачать  

14-09-2012 09:12 Анна Герман. Тайна белого ангела Скачать торрент  


Анна Герман. Тайна белого ангела
Страна: Россия
Студия: Стар-медиа
Жанр: драма, биография
Год выпуска: 2012
Мировая премьера: 3 сентября 2012
Российская премьера: 3 сентября 2012
Дата выхода DVD: 13 сентября 2012
Продолжительность: 500 мин.
Перевод: Оригинал [Лицензия]
Cубтитры: нет
Оригинальная аудиодорожка: русский
Режиссер: Вальдемар Кшистек, Александр Тименко
В ролях: Иоанна Моро, Мария Порошина, Марат Башаров, Екатерина Васильева, Константин Милованов, Анна Кирина, Томмазо Раменги, Шимон Сендровский, Юлия Рутберг, Виталий Гусев...
Описание: История о певице, которая на пике своей славы попала в автокатастрофу и оказалась прикованной к больничной койке. 12 дней восходящая звезда Анна Герман не приходила в сознание. В те дни ей пришлось снова пережить трагические события своего детства — арест отца, обвиненного в шпионаже, скитания их осиротелой семьи по Средней Азии, смерть маленького брата, войну и побег в Польшу в надежде скрыться от преследователей из НКВД… Первую любовь и первый успех…
Никто из врачей не верил, что она выживет. А если даже это случится, ей пророчили полную неподвижность до конца жизни. Однако, после 12 дней комы небо даровало ей шанс начать жизнь заново. И она совершила невозможное, став «белым ангелом» советской эстрады…

Бонусы: нет

Качество: 2xDVD9 R5
Формат: DVD-Video
Видео кодек: MPEG2
Аудио кодек: AC3
Видео: PAL 16:9 (720x576(0.365)) MPEG Video, 25,000 кадр/сек, 3784 Кбит/сек
Аудио: Russian (Dolby AC3, 2 ch) 192 Кбит/сек, 48,0 КГц



Title: DVD1
Size: 7.53 Gb ( 7 894 894,00 KBytes ) - DVD-9
Enabled regions: 1, 2, 3, 4, 5, 6, 7, 8

VTS_01 :
Play Length: 00:00:16+00:02:11
Video: PAL 16:9 (720x576) VBR, Auto Letterboxed
Audio:
Russian (Dolby AC3, 2 ch)

VTS_02 :
Play Length: 04:13:43
Video: PAL 16:9 (720x576) VBR, Auto Letterboxed
Audio:
English (Dolby AC3, 2 ch)

* Menus Information *

VIDEO_TS Menu
Video:
NTSC 4:3 (720x480) VBR
Auto Pan&Scan, Auto Letterboxed
Russian Language Unit :
Title Menu

VTS_01 Menu
Video:
NTSC 4:3 (720x480) VBR
Auto Pan&Scan, Auto Letterboxed
Language Unit :
Angle menu
Language Unit :

VTS_02 Menu
Video:
PAL 16:9 (720x576) VBR
Auto Letterboxed
Audio:
Not specified (Dolby AC3, 2 ch)
Russian Language Unit :
Root Menu
Chapter (PTT) Menu
Title: DVD2
Size: 7.51 Gb ( 7 878 184,00 KBytes ) - DVD-9
Enabled regions: 1, 2, 3, 4, 5, 6, 7, 8

VTS_01 :
Play Length: 00:00:16+00:02:11
Video: PAL 16:9 (720x576) VBR, Auto Letterboxed
Audio:
Russian (Dolby AC3, 2 ch)

VTS_02 :
Play Length: 04:13:09
Video: PAL 16:9 (720x576) VBR, Auto Letterboxed
Audio:
English (Dolby AC3, 2 ch)

* Menus Information *

VIDEO_TS Menu
Video:
NTSC 4:3 (720x480) VBR
Auto Pan&Scan, Auto Letterboxed
Russian Language Unit :
Title Menu

VTS_01 Menu
Video:
NTSC 4:3 (720x480) VBR
Auto Pan&Scan, Auto Letterboxed
Language Unit :
Angle menu
Language Unit :

VTS_02 Menu
Video:
PAL 16:9 (720x576) VBR
Auto Letterboxed
Audio:
Not specified (Dolby AC3, 2 ch)
Russian Language Unit :
Root Menu
Chapter (PTT) Menu
Общее
Полное имя : J:\Новинки 2012\Anna.German.2012.2xDVD9\DVD1\VIDEO_TS\VTS_02_1.VOB
Формат : MPEG-PS
Размер файла : 1024 Мбайт
Продолжительность : 35 м.
Режим общего битрейта : Переменный
Общий поток : 4057 Кбит/сек

Видео
Идентификатор : 224 (0xE0)
Формат : MPEG Video
Версия формата : Version 2
Профиль формата : Main@Main
Параметр BVOP формата : Да
Параметр матрицы формата : Выборочная
Продолжительность : 35 м.
Вид битрейта : Переменный
Битрейт : 3784 Кбит/сек
Максимальный битрейт : 8500 Кбит/сек
Ширина : 720 пикселей
Высота : 576 пикселей
Соотношение сторон : 16:9
Частота кадров : 25,000 кадров/сек
Стандарт вещания : PAL
Цветовое пространство : YUV
Субдискретизация насыщенности : 4:2:0
Битовая глубина : 8 бит
Тип развёртки : Чересстрочная
Порядок развёртки : Верхнее поле первое
Метод сжатия : С потерями
Бит/(Пиксели*Кадры) : 0.365
Размер потока : 955 Мбайт (93%)

Аудио
Идентификатор : 189 (0xBD)-128 (0x80)
Формат : AC-3
Формат/Информация : Audio Coding 3
Расширение режима : CM (complete main)
Параметр Endianness формата : Big
Режим смешивания : DVD-Video
Продолжительность : 35 м.
Вид битрейта : Постоянный
Битрейт : 192 Кбит/сек
Каналы : 2 канала
Расположение каналов : Front: L R
Частота : 48,0 КГц
Битовая глубина : 16 бит
Метод сжатия : С потерями
Размер потока : 48,5 Мбайт (5%)










pb.wtf



Скачать Анна Герман. Тайна белого ангела через торрент http://i41.fastpic.ru/big/2012/0914/3a/1c3f6d20624cc0e66af241253efe8e3a.jpg Скачать фильм Анна Герман. Тайна белого ангела через торрент бесплантно в хорошем качестве Описание: История о певице, которая на пике своей славы попала в автокатастрофу и оказалась прикованной к больничной койке. 12 дней ... 9.8 10 6
Info! Золотая раздача, скачанное не засчитывается.
Торрент: Зарегистрирован [2012-09-14 09:12] · скачан: 135 раз
Статус: √ проверено
Размер: 15.04 GB
Как cкачать? Как скачать Анна Герман. Тайна белого ангела через торрент | qTorrent

28-11-2019 20:33  

Отключить всю рекламу на сайте

    Дорогой пользователь! Огромная просьба, поблагодарите релизера, оцените раздачу и оставьте свои комментарий, если Вы скачали Анна Герман. Тайна белого ангела через торрент бесплатно! Внесите свою лепту в развитие PiratBit!
    Комментировать посты могут только пользователи прошедшие не сложную регистрацию
    Показать сообщения:    

    Анна Герман. Тайна белого ангела через торрент
    Скачать бесплатно Анна Герман. Тайна белого ангела
    Анна Герман. Тайна белого ангела скачать торрент
    Анна Герман. Тайна белого ангела смотреть онлайн
    Cкачать фильм Анна Герман. Тайна белого ангела бесплатно
    Анна Герман. Тайна белого ангела скачать торрент в хорошем качестве
    Анна Герман. Тайна белого ангела смотреть онлайн бесплатно в хорошем качестве


    Вы не можете начинать темы
    Вы не можете отвечать на сообщения
    Вы не можете редактировать свои сообщения
    Вы не можете удалять свои сообщения
    Вы не можете голосовать в опросах
    Вы не можете прикреплять файлы к сообщениям
    Вы можете скачивать файлы