Ссылка на приватное зеркало нашего сайта всего за 1$. Внимание количество ограничено!!!

2 сезон

iTunes

1 сезон

1

2 сезон

2 сезон

iTunes

1 сезон

RePack

30

Ultimate

ВАЖНО

ИГРА 18+

pack

RePack

MK11
pack

Забери бонус

RePack

jed

!!Акция!!

Alien_Rage

RePack

fifa19

RePack

Assassins Creed: Odyssey

RePack

NEED FOR SPEED™ PAYBACK

4 сезон

9 сезон

Бесстыжие 9 сезон

Все сериалы

все сериалы на PB.wtf

RePack

FAR CRY 5
  

Любить нельзя забыть (Вячеслав Лавров) [2012, Россия, мелодрама, WEB-DLRip] pb.wtf

Любить нельзя забыть через торрент pb.wtf

Размер: 744 MB | Добавлен: 7 лет 6 мес. назад | Торрент скачан:116 раз
Скачать  

11-05-2013 16:49 Любить нельзя забыть Скачать торрент  

Любить нельзя забыть
Страна: Россия
Год выпуска: 2012
Жанр: мелодрама
Продолжительность: 01:27:40
Перевод: Не требуется
Субтиры: нет

Режиссер: Вячеслав Лавров

В ролях: Наталия Антонова, Дмитрий Бедерин, Полина Тарасова, Светлана Галка, Елена Стародуб, Руслан Джайбеков, Павел Шингарев, Анжелика Волчкова, Ева Авеева, Людмила Гаврилова, Александр Курицын, Олег Леушин

Описание: В тридцать семь лет Марина ведет самую обычную жизнь современной разведенной женщины: одна воспитывает двенадцатилетнюю дочь Ксюшу, и работает учителем в художественной школе. Марине кажется, что ее жизнь уже прожита, и в ней не случится ничего нового. Но все меняется, когда Марина случайно знакомится с Никитой. Молодой человек влюбляется в нее с первого взгляда и готов на все, чтобы быть с любимой. Марина тоже испытывает чувства к Никите, но беда в том, что ему всего двадцать лет.
Разница в возрасте не смущает Никиту - он готов жениться на Марине. Но Марину пугает такая перспектива, она уверена, что окружающие их не одобрят. Она колеблется, и, наконец, сбегает от своей сумасшедшей любви в город своего детства. Родители Марины знакомят ее со своим новым соседом Игорем. Он положительный, ответственный, влюблен в Марину, а главное - ее ровесник. Марина соглашается стать женой Игоря.
Но согласится ли Никита так легко отказаться от любимой женщины?..

Качество: WEB-DLRip
Контейнер: AVI
Видео кодек: XviD
Аудио кодек: MP3
Видео: 688x384 (1.79:1), 25 fps, XviD build 73 ~1049 kbps avg, 0.16 bit/pixel
Аудио: 48 kHz, MPEG Layer 3, 2 ch, ~128.00 kbps avg
Раздача от:
D:Lyubit.nelzya.zabyt.2012.WEB-DLRip.[YTN] by dexter lex.avi
General
Complete name : D:Lyubit.nelzya.zabyt.2012.WEB-DLRip.[YTN] by dexter lex.avi
Format : AVI
Format/Info : Audio Video Interleave
File size : 744 MiB
Duration : 1h 27mn
Overall bit rate : 1 187 Kbps
Writing application : VirtualDubMod 1.5.10.3 | www.virtualdub-fr.org || (build 2550/release)
Writing library : VirtualDubMod build 2550/release
Video #0
ID : 0
Format : MPEG-4 Visual
Format profile : Advanced Simple@L5
Format settings, BVOP : 1
Format settings, QPel : No
Format settings, GMC : No warppoints
Format settings, Matrix : Custom
Codec ID : XVID
Codec ID/Hint : XviD
Duration : 1h 27mn
Bit rate : 1 049 Kbps
Width : 688 pixels
Height : 384 pixels
Display aspect ratio : 1.79:1
Frame rate : 25.000 fps
Color space : YUV
Chroma subsampling : 4:2:0
Bit depth : 8 bits
Scan type : Progressive
Compression mode : Lossy
Bits/(Pixel*Frame) : 0.159
Stream size : 658 MiB (88%)
Writing library : XviD 73
Audio #1
ID : 1
Format : MPEG Audio
Format version : Version 1
Format profile : Layer 3
Codec ID : 55
Codec ID/Hint : MP3
Duration : 1h 27mn
Bit rate mode : Constant
Bit rate : 128 Kbps
Channel(s) : 2 channels
Sampling rate : 44.1 KHz
Compression mode : Lossy
Stream size : 80.2 MiB (11%)
Alignment : Split accross interleaves
Interleave, duration : 40 ms (1.00 video frame)
Interleave, preload duration : 500 ms
Writing library : LAME3.99r
Encoding settings : -m s -V 4 -q 2 -lowpass 17 -b 128
pb.wtf



Скачать Любить нельзя забыть через торрент http://i53.fastpic.ru/big/2013/0205/18/37c4777dcdc744569c09a6ba39335e18.jpg Скачать фильм Любить нельзя забыть через торрент бесплантно в хорошем качестве Описание: В тридцать семь лет Марина ведет самую обычную жизнь современной разведенной женщины: одна воспитывает двенадцатилетнюю дочь ... 9.3 10 3
Info! Золотая раздача, скачанное не засчитывается.
Торрент: Зарегистрирован [2013-05-11 16:49] · скачан: 116 раз
Статус: √ проверено
Размер: 744 MB
Как cкачать? Как скачать Любить нельзя забыть через торрент | qTorrent

% Раздел Тема Автор DL S | L
Наши фильмы (HD, WEB-DL 720p, 1080p) [ 1.61 GB ] Любить нельзя забыть [2012 WEB-DLRip 1080p] [Русский] smaster Скачать
1 | 0
Наши новые фильмы 2012 [ 1.37 GB ] Любить нельзя забыть [2012 Россия SATRip] -=Cherry=- Скачать
1 | 0

28-11-2019 20:33  

Отключить всю рекламу на сайте

    Дорогой пользователь! Огромная просьба, поблагодарите релизера, оцените раздачу и оставьте свои комментарий, если Вы скачали Любить нельзя забыть через торрент бесплатно! Внесите свою лепту в развитие PiratBit!
    Комментировать посты могут только пользователи прошедшие не сложную регистрацию
    Показать сообщения:    

    Любить нельзя забыть через торрент
    Скачать бесплатно Любить нельзя забыть
    Любить нельзя забыть скачать торрент
    Любить нельзя забыть смотреть онлайн
    Cкачать фильм Любить нельзя забыть бесплатно
    Любить нельзя забыть скачать торрент в хорошем качестве
    Любить нельзя забыть смотреть онлайн бесплатно в хорошем качестве


    Вы не можете начинать темы
    Вы не можете отвечать на сообщения
    Вы не можете редактировать свои сообщения
    Вы не можете удалять свои сообщения
    Вы не можете голосовать в опросах
    Вы не можете прикреплять файлы к сообщениям
    Вы можете скачивать файлы