Ссылка на приватное зеркало нашего сайта всего за 1$. Внимание количество ограничено!!!

2 сезон

iTunes

1 сезон

1

iTunes

iTunes

iTunes

1 сезон

RePack

30

ИГРА 18+

pack

ВАЖНО

!!Акция!!

Alien_RageХит недели

RePack

MK11
pack

Забери бонус

RePack

jed

!!Акция!!

Alien_Rage

RePack

fifa19

RePack

Assassins Creed: Odyssey

RePack

NEED FOR SPEED™ PAYBACK

4 сезон

9 сезон

Бесстыжие 9 сезон

Все сериалы

все сериалы на PB.wtf

RePack

FAR CRY 5
  

Человеческий род / The Human Race (Пол Хью / Paul Hough) [ 2013 , США , ужасы, фантастика, боевик , DVDRip ] VO [Xixidok] pb.wtf

Человеческий род через торрент pb.wtf

Размер: 1.37 GB | Добавлен: 6 лет 9 мес. назад | Торрент скачан:526 раз
Скачать  

16-01-2014 00:48 Человеческий род Скачать торрент  

Человеческий род / The Human RaceГод выпуска: 2013
Страна: США
Жанр: ужасы, фантастика, боевик

Продолжительность: 01:23:46
Перевод: Любительский (одноголосый)[Xixidok]
Субтитры: Нет
Режиссер: Пол Хью / Paul Hough
В ролях: Пол МакКарти-Бойингтон (Justin), Эдди МакГи (Eddie), Триста Робинсон (Deaf Female), T. Arthur Cottam (Deaf Male), Брианна Лорен Джексон (Veronica), Фред Каури (Yellow Jersey), Б. Энтони Коэн (The Priest), Ноэль Бриттон (Stressed Out), Джим Рейд (War Vet), Селин Тиен (Ting), Йен Тиен (Shio Lau), Ричард Гэйл (Evil Brother)
Описание:
Вероника внезапно оказывается участницей нереально ужасного марафонского забега. Правила просты: если вы уклоняетесь - вы умираете, если вы сходите с дистанции - вы умираете. Многие начинают стартовать, но только один из них сможет пересечь финишную черту живым.
Рейтинг
kinopoisk.ru: 5.833 (20)
imdb.com: 6.10 (1944)
Качество: DVDRip
Формат: AVI
Видео кодек: XviD
Аудио кодек: AC3/MP3
Видео: XviD, 720x400 (16:9), 1909 kbps, 25 fps, 0,265 bpp
Аудио №1: MP3 / 2.0 / 44 kHz / 192 kbps /Russian
Аудио №2: AC3 / 2.0 / 48 kHz / 128 kbps / 16 bit- English

General
Complete name : D:ТорентыCeloveceskiy.rod.2013.L1.DVDRip.1400MB.avi
Format : AVI
Format/Info : Audio Video Interleave
File size : 1.37 GiB
Duration : 1h 23mn
Overall bit rate : 2 333 Kbps
Writing application : VirtualDubMod 1.5.10.2 (build 2540/release)
Writing library : VirtualDubMod build 2540/release

Video
ID : 0
Format : MPEG-4 Visual
Format profile : Simple@L3
Format settings, BVOP : No
Format settings, QPel : No
Format settings, GMC : No warppoints
Format settings, Matrix : Default (H.263)
Codec ID : XVID
Codec ID/Hint : XviD
Duration : 1h 23mn
Bit rate : 1 910 Kbps
Width : 720 pixels
Height : 400 pixels
Display aspect ratio : 16:9
Frame rate : 25.000 fps
Color space : YUV
Chroma subsampling : 4:2:0
Bit depth : 8 bits
Scan type : Progressive
Compression mode : Lossy
Bits/(Pixel*Frame) : 0.265
Stream size : 1.12 GiB (82%)
Writing library : XviD 64

Audio #1
ID : 1
Format : MPEG Audio
Format version : Version 1
Format profile : Layer 3
Codec ID : 55
Codec ID/Hint : MP3
Duration : 1h 23mn
Bit rate mode : Constant
Bit rate : 192 Kbps
Channel(s) : 2 channels
Sampling rate : 44.1 KHz
Compression mode : Lossy
Delay relative to video : 13ms
Stream size : 115 MiB (8%)
Alignment : Split accross interleaves

Audio #2
ID : 2
Format : AC-3
Format/Info : Audio Coding 3
Mode extension : CM (complete main)
Codec ID : 2000
Duration : 1h 23mn
Bit rate mode : Constant
Bit rate : 128 Kbps
Channel(s) : 2 channels
Channel positions : Front: L R
Sampling rate : 48.0 KHz
Bit depth : 16 bits
Compression mode : Lossy
Stream size : 76.7 MiB (5%)
Alignment : Split accross interleaves
pb.wtf



Скачать Человеческий род через торрент http://i1.imageban.ru/out/2014/01/16/07a8ac6b22ad0c6e23183315a379dfc0.jpg Скачать фильм Человеческий род через торрент бесплантно в хорошем качестве Описание: Вероника внезапно оказывается участницей нереально ужасного марафонского забега. Правила просты: если вы уклоняетесь - вы ... 9.3 10 18
Info! Золотая раздача, скачанное не засчитывается.
Торрент: Зарегистрирован [2014-01-16 00:48] · скачан: 526 раз
Статус: √ проверено
Размер: 1.37 GB
Как cкачать? Как скачать Человеческий род через торрент | qTorrent

28-11-2019 20:33  

Отключить всю рекламу на сайте

16-01-2014 01:43 Человеческий род Скачать торрент  

ходят слухи, что у ентого фильма сверхфеерическая концовка... спасибо за раздачу, глянемpb.wtf



16-01-2014 03:16 Человеческий род Скачать торрент  

судя по описанию - ссылкаpb.wtf



16-01-2014 04:46 Человеческий род Скачать торрент  

Исходя из слогана ,наверное правильнее будет "Человеческая гонка" или "Гонка людей" .pb.wtf



16-01-2014 05:13 Человеческий род Скачать торрент  

Itei84 писал(а):

Исходя из слогана ,наверное правильнее будет "Человеческая гонка" или "Гонка людей" .

слово race переводится как род или раса, гонка тут не причем.pb.wtf



16-01-2014 05:36 Человеческий род Скачать торрент  

cricket-0312 писал(а):

Itei84 писал(а):

Исходя из слогана ,наверное правильнее будет "Человеческая гонка" или "Гонка людей" .

слово race переводится как род или раса, гонка тут не причем.

слово race имеет больше 10 вариантов перевода, но чаще всего переводится и употребляется как гонка или раса (это как существительное)pb.wtf



16-01-2014 05:58 Человеческий род Скачать торрент  

cricket-0312 писал(а):

Itei84 писал(а):

Исходя из слогана ,наверное правильнее будет "Человеческая гонка" или "Гонка людей" .

слово race переводится как род или раса, гонка тут не причем.

То есть слоган "Race or Die" по вашему, в переводе звучит как "Род или Умри" ?!)) Как по мне "Гони или Умри" как то больше вписывается сюжет.pb.wtf



16-01-2014 14:31 Человеческий род Скачать торрент  

Itei84 писал(а):

cricket-0312 писал(а):

Itei84 писал(а):

Исходя из слогана ,наверное правильнее будет "Человеческая гонка" или "Гонка людей" .

слово race переводится как род или раса, гонка тут не причем.

То есть слоган "Race or Die" по вашему, в переводе звучит как "Род или Умри" ?!)) Как по мне "Гони или Умри" как то больше вписывается сюжет.

Значений много, главное в каком контексте использовать)pb.wtf



16-01-2014 15:49 Человеческий род Скачать торрент  

автору спасибо, но фильм я бы смотреть не советовал. откуда такие оценки?pb.wtf



16-01-2014 19:54 Человеческий род Скачать торрент  

sergunka писал(а):

ru.wikipedia.org/wiki/Долгая_прогулка

Фильм к книге весьма отдалённо относится.pb.wtf



22-01-2014 07:04 Человеческий род Скачать торрент  

Норм фильм...
"To Be Continued" по ходу.....
Автору спс!!!pb.wtf



    Дорогой пользователь! Огромная просьба, поблагодарите релизера, оцените раздачу и оставьте свои комментарий, если Вы скачали Человеческий род через торрент бесплатно! Внесите свою лепту в развитие PiratBit!
    Комментировать посты могут только пользователи прошедшие не сложную регистрацию
    Показать сообщения:    

    Человеческий род через торрент
    Скачать бесплатно Человеческий род
    Человеческий род скачать торрент
    Человеческий род смотреть онлайн
    Cкачать фильм Человеческий род бесплатно
    Человеческий род скачать торрент в хорошем качестве
    Человеческий род смотреть онлайн бесплатно в хорошем качестве


    Вы не можете начинать темы
    Вы не можете отвечать на сообщения
    Вы не можете редактировать свои сообщения
    Вы не можете удалять свои сообщения
    Вы не можете голосовать в опросах
    Вы не можете прикреплять файлы к сообщениям
    Вы можете скачивать файлы