Ссылка на приватное зеркало нашего сайта всего за 1$. Внимание количество ограничено!!!

2 сезон

iTunes

1 сезон

1

iTunes

iTunes

iTunes

1 сезон

RePack

30

ИГРА 18+

pack

ВАЖНО

!!Акция!!

Alien_RageХит недели

RePack

MK11
pack

Забери бонус

RePack

jed

!!Акция!!

Alien_Rage

RePack

fifa19

RePack

Assassins Creed: Odyssey

RePack

NEED FOR SPEED™ PAYBACK

4 сезон

9 сезон

Бесстыжие 9 сезон

Все сериалы

все сериалы на PB.wtf

RePack

FAR CRY 5
  

Отклонение / Aberration (Дуглас Эльфорд-Аргент) [2013, Ужасы, WEB-DLRip] VO [den904] pb.wtf

Отклонение через торрент pb.wtf

Размер: 1.39 GB | Добавлен: 6 лет 9 мес. назад | Торрент скачан:112 раз
Скачать  

16-01-2014 01:27 Отклонение Скачать торрент  

Отклонение / AberrationГод выпуска: 2013
Страна: США
Жанр: ужасы
Продолжительность: 01:24:41
Перевод: Любительский (одноголосый) [den904]
Субтитры: Нет
Режиссер: Douglas Elford-Argent
В ролях: Питер Джеймс (Chief Howard Dixon), Кэл Томас (Elliott Smithe), Бобби Джин Баш (Mindy Mariner), Остин Килер (Charlie Smithe /The Boy), Энни Хьюз (Sarah Dawson), Chris Muntel (Officer Johnson), Дэниэл Кёштер (Erick Jacobs), Matt Koester (Joe Turner), Эрик Абрахам (Hockey Announcer), Кристиан Капалик (Kyle Walker), Diana Flatoff (Police Officer #1), Линдси Гальяно (Lynn Prescott)
Описание:
Школьнице Кристи начинает видеться повсюду призрак неизвестного мальчонки, после чего один за другим начинают погибать её сверстники - игроки школьной хоккейной команды.
Качество: WEB-DLRip
Формат: AVI
Видео кодек: XviD
Аудио кодек: AC3
Видео: 720x304 (2.35:1), 23.976 fps, 1 697 Kbps (0.323 bit/pixel)
Аудио: AC3 / 5.1 / 48 kHz / 640 kbps /

Общее
Полное имя : D:ТорентыAberration.2013.WЕB.DLRip.avi
Формат : AVI
Формат/Информация : Audio Video Interleave
Размер файла : 1,39 Гбайт
Продолжительность : 1 ч. 24 м.
Общий поток : 2347 Кбит/сек
Программа кодирования : VirtualDubMod 1.5.10.1 (build 2366/release)
Библиотека кодирования : VirtualDubMod build 2366/release

Видео
Идентификатор : 0
Формат : MPEG-4 Visual
Профиль формата : Advanced Simple@L5
Параметр BVOP формата : 2
Параметр QPel формата : Нет
Параметр GMC формата : Без точки перехода
Параметр матрицы формата : Default (H.263)
Идентификатор кодека : XVID
Идентификатор кодека/Подсказка : XviD
Продолжительность : 1 ч. 24 м.
Битрейт : 1697 Кбит/сек
Ширина : 720 пикселей
Высота : 304 пикселя
Соотношение сторон : 2,35:1
Частота кадров : 23,976 кадра/сек
Цветовое пространство : YUV
Субдискретизация насыщенности : 4:2:0
Битовая глубина : 8 бит
Тип развёртки : Прогрессивная
Метод сжатия : С потерями
Бит/(Пиксели*Кадры) : 0.323
Размер потока : 1,00 Гбайт (72%)
Библиотека кодирования : XviD 1.2.1 (UTC 2008-12-04)

Аудио
Идентификатор : 1
Формат : AC-3
Формат/Информация : Audio Coding 3
Расширение режима : CM (complete main)
Параметр Endianness формата : Big
Идентификатор кодека : 2000
Продолжительность : 1 ч. 24 м.
Вид битрейта : Постоянный
Битрейт : 640 Кбит/сек
Каналы : 6 каналов
Расположение каналов : Front: L C R, Side: L R, LFE
Частота : 48,0 КГц
Битовая глубина : 16 бит
Метод сжатия : С потерями
Размер потока : 388 Мбайт (27%)
Выравнивание : Разделение по промежуткам
Продолжительность промежутка : 42 мс. (1,00 видеокадр)
Время предзагрузки промежутка : 500 мс.
pb.wtf



Скачать Отклонение через торрент http://i3.imageban.ru/out/2014/01/16/4268efffd9795300b3c837e2cd01af8f.png Скачать фильм Отклонение через торрент бесплантно в хорошем качестве Описание: Школьнице Кристи начинает видеться повсюду призрак неизвестного мальчонки, после чего один за другим начинают погибать её ... 8.5 10 6
Info! Золотая раздача, скачанное не засчитывается.
Торрент: Зарегистрирован [2014-01-16 01:27] · скачан: 112 раз
Статус: # сомнительно
Размер: 1.39 GB
Как cкачать? Как скачать Отклонение через торрент | qTorrent

28-11-2019 20:33  

Отключить всю рекламу на сайте

16-01-2014 01:33 Отклонение Скачать торрент  

Цитата:

Качество: WEB-DLRip

Цитата:

AC3 / 640 kbps /

# сомнительноpb.wtf



    Дорогой пользователь! Огромная просьба, поблагодарите релизера, оцените раздачу и оставьте свои комментарий, если Вы скачали Отклонение через торрент бесплатно! Внесите свою лепту в развитие PiratBit!
    Комментировать посты могут только пользователи прошедшие не сложную регистрацию
    Показать сообщения:    

    Отклонение через торрент
    Скачать бесплатно Отклонение
    Отклонение скачать торрент
    Отклонение смотреть онлайн
    Cкачать фильм Отклонение бесплатно
    Отклонение скачать торрент в хорошем качестве
    Отклонение смотреть онлайн бесплатно в хорошем качестве


    Вы не можете начинать темы
    Вы не можете отвечать на сообщения
    Вы не можете редактировать свои сообщения
    Вы не можете удалять свои сообщения
    Вы не можете голосовать в опросах
    Вы не можете прикреплять файлы к сообщениям
    Вы можете скачивать файлы