Ссылка на приватное зеркало нашего сайта всего за 1$. Внимание количество ограничено!!!

2 сезон

iTunes

1 сезон

1

iTunes

iTunes

iTunes

1 сезон

RePack

30

ИГРА 18+

pack

ВАЖНО

!!Акция!!

Alien_RageХит недели

RePack

MK11
pack

Забери бонус

RePack

jed

!!Акция!!

Alien_Rage

RePack

fifa19

RePack

Assassins Creed: Odyssey

RePack

NEED FOR SPEED™ PAYBACK

4 сезон

9 сезон

Бесстыжие 9 сезон

Все сериалы

все сериалы на PB.wtf

RePack

FAR CRY 5
  

Иван Царевич и Серый Волк 2 (Владимир Торопчин) [ 2013 , Россия , мультфильм, приключения, семейный , DVDRip ] pb.wtf

Иван Царевич и Серый Волк 2 через торрент pb.wtf

Размер: 698 MB | Добавлен: 6 лет 9 мес. назад | Торрент скачан:1034 раза
Скачать  

16-01-2014 16:40 Иван Царевич и Серый Волк 2 Скачать торрент  

Иван Царевич и Серый Волк 2Год выпуска: 2013
Страна: Россия
Жанр: мультфильм, приключения, семейный, фэнтези
Продолжительность: 01:09:46
Перевод: Не требуется
Субтитры: Нет
Режиссер: Владимир Торопчин
В ролях: Никита Ефремов (Иван, озвучка), Татьяна Бунина (Василиса, озвучка), Иван Охлобыстин (Царь, озвучка), Михаил Боярский (Кот Ученый, озвучка), Ирина Рахманова (Лунная лягушка, озвучка), Александр Боярский (Волк, озвучка)
Описание:
В Тридевятом царстве, где живут наши герои - тишь, да благодать. Иван женился на Василисе, и «жили они долго и счастливо», да не тут-то было. Иван целыми днями пропадает с Волком на службе - укрепляет рубежи и оборонную мощь, мечтает перевести стрелки часов на семь часов назад, чтобы меньше спать, и больше работать. А Василисе - скучно, как всем девушкам, ей хочется романтики, ну, такой, как в сказках. И тогда она решает организовать свое похищение... Однако, когда такое бывало, что в сказках все получалось так, как задумывалось?
Рейтинг
kinopoisk.ru: 5.242 (1870)
imdb.com: 6.10 (12)
Качество: DVDRip
Формат: AVI
Видео кодек: XviD
Аудио кодек: MP3
Видео: XviD, 720x400 (16:9), 1261 kbps, 25 fps, 0,175 bpp
Аудио: MP3 / 2.0 / 48 kHz / 128 kbps /

General
Complete name : D:ТорентыIvan.Tsarevich.i.volk.2.2013.O.DVDRip.700MB.avi
Format : AVI
Format/Info : Audio Video Interleave
File size : 698 MiB
Duration : 1h 9mn
Overall bit rate : 1 399 Kbps
Writing application : VirtualDubMod 1.5.10.3 | www.virtualdub-fr.org || (build 2550/release)
Writing library : VirtualDubMod build 2550/release

Video
ID : 0
Format : MPEG-4 Visual
Format profile : Advanced Simple@L5
Format settings, BVOP : 1
Format settings, QPel : No
Format settings, GMC : No warppoints
Format settings, Matrix : Default (MPEG)
Codec ID : XVID
Codec ID/Hint : XviD
Duration : 1h 9mn
Bit rate : 1 262 Kbps
Width : 720 pixels
Height : 400 pixels
Display aspect ratio : 16:9
Frame rate : 25.000 fps
Color space : YUV
Chroma subsampling : 4:2:0
Bit depth : 8 bits
Scan type : Progressive
Compression mode : Lossy
Bits/(Pixel*Frame) : 0.175
Stream size : 630 MiB (90%)
Writing library : XviD 73

Audio
ID : 1
Format : MPEG Audio
Format version : Version 1
Format profile : Layer 3
Codec ID : 55
Codec ID/Hint : MP3
Duration : 1h 9mn
Bit rate mode : Constant
Bit rate : 128 Kbps
Channel(s) : 2 channels
Sampling rate : 48.0 KHz
Compression mode : Lossy
Stream size : 63.9 MiB (9%)
Alignment : Aligned on interleaves
Interleave, duration : 40 ms (1.00 video frame)
Interleave, preload duration : 504 ms
Writing library : LAME3.99r
Encoding settings : -m s -V 4 -q 2 -lowpass 17 -b 128
pb.wtf



Скачать Иван Царевич и Серый Волк 2 через торрент http://i2.imageban.ru/out/2014/01/16/fc49e4457839ba7d2884f81e2b288a5e.jpg Скачать фильм Иван Царевич и Серый Волк 2 через торрент бесплантно в хорошем качестве Описание: В Тридевятом царстве, где живут наши герои - тишь, да благодать. Иван женился на Василисе, и «жили они долго и счастливо», да не ... 10 10 28
Info! Золотая раздача, скачанное не засчитывается.
Торрент: Зарегистрирован [2014-01-16 16:40] · скачан: 1 034 раз
Статус: √ проверено
Размер: 698 MB
Как cкачать? Как скачать Иван Царевич и Серый Волк 2 через торрент | qTorrent

% Раздел Тема Автор DL S | L
Наши мультфильмы [ 1.37 GB ] Иван Царевич и Серый Волк 2 [2013 мультфильм DVDRip] MihailHD Скачать
2 | 0
Наши мультфильмы [ 1.46 GB ] Иван Царевич и Серый Волк 2 [2013 мультфильм BDRip ] coc900 Скачать
1 | 0
3D Мультфильмы [ 2.35 GB ] Иван Царевич и Серый Волк 2 [2013 мультфильм BDRip 1080р][]Half OverUnder / Вертикальная анаморфная стереопара Кирилл1710 Скачать
1 | 0
T 3D Мультфильмы [ 4.24 GB ] Иван Царевич и Серый Волк 2 в 3Д / 3D [2013 Мультфильм BDrip 1080p] OverUnder / Вертикальная стереопара serega768 Скачать
1 | 0
Наши Мультфильмы (HD, WEB-DL 720p, 1080p) [ 9.59 GB ] Иван Царевич и Серый Волк 2 [2013 Мультфильм Blu-Ray 1080p ] читерас Скачать
1 | 0
Наши Мультфильмы (HD, WEB-DL 720p, 1080p) [ 2.92 GB ] Иван Царевич и Серый Волк 2 [2013 Мультфильм BDRip 720p] potroks Скачать
1 | 0
Наши Мультфильмы (DVD) [ 3.63 GB ] Иван Царевич и Серый Волк 2 [2013 мультфильм DVD5] R5 voovaz Скачать
1 | 0

28-11-2019 20:33  

Отключить всю рекламу на сайте

    Дорогой пользователь! Огромная просьба, поблагодарите релизера, оцените раздачу и оставьте свои комментарий, если Вы скачали Иван Царевич и Серый Волк 2 через торрент бесплатно! Внесите свою лепту в развитие PiratBit!
    Комментировать посты могут только пользователи прошедшие не сложную регистрацию
    Показать сообщения:    

    Иван Царевич и Серый Волк 2 через торрент
    Скачать бесплатно Иван Царевич и Серый Волк 2
    Иван Царевич и Серый Волк 2 скачать торрент
    Иван Царевич и Серый Волк 2 смотреть онлайн
    Cкачать фильм Иван Царевич и Серый Волк 2 бесплатно
    Иван Царевич и Серый Волк 2 скачать торрент в хорошем качестве
    Иван Царевич и Серый Волк 2 смотреть онлайн бесплатно в хорошем качестве


    Вы не можете начинать темы
    Вы не можете отвечать на сообщения
    Вы не можете редактировать свои сообщения
    Вы не можете удалять свои сообщения
    Вы не можете голосовать в опросах
    Вы не можете прикреплять файлы к сообщениям
    Вы можете скачивать файлы