2 сезон

iTunes

MVO

1

2 сезон

iTunes

iTunes

1 сезон

RePack

30

Новинка

ВАЖНО

ИГРА 18+

pack

RePack

MK11
pack

Легкие деньги

RePack

jed

RePack

fifa19

RePack

RDR2

RePack

NEED FOR SPEED™ PAYBACK

4 сезон

9 сезон

Бесстыжие 9 сезон

Все сериалы

все сериалы на PB.wtf

RePack

FAR CRY 5

Anonymous, добрый вечер, мы не успеваем собрать деньги на оплату серверов за декабрь и январь, помогите нам пожалуйста в это трудное время. В качестве благодарности мы отключим Вам всю рекламу на сайте (укажите свой ник в строку Ваше имя)!

×
  
Magnet ссылка

Иван Царевич и Серый Волк 2 (Владимир Торопчин) [2013, мультфильм, приключения, семейный, фэнтези, DVD5] R5 pb.wtf

Иван Царевич и Серый Волк 2 через торрент pb.wtf

Размер: 3.63 GB | Добавлен: 7 лет назад | Торрент скачан:1069 раз
Скачать  

16-01-2014 18:52 Иван Царевич и Серый Волк 2 Скачать торрент  


Иван Царевич и Серый Волк 2
Страна: Россия
Студия: Кинокомпания CTB, Анимационная студия Мельница
Жанр: мультфильм, приключения, семейный, фэнтези
Год выпуска: 2013
Мировая премьера: 26 декабря 2013
Российская премьера: 26 декабря 2013, 3D
Украинская премьера: 26 декабря 2013, 3D
Дата выхода DVD: 21 января 2014
Дата выхода Blu-Ray: 21 января 2014
Продолжительность: 01:09:46
Перевод: Оригинал [Лицензия]
Cубтитры: нет
Оригинальная аудиодорожка: русский
Режиссер: Владимир Торопчин
Роли озвучивали: Никита Ефремов, Татьяна Бунина, Иван Охлобыстин, Михаил Боярский, Ирина Рахманова, Александр Боярский
Описание: В Тридевятом царстве, где живут наши герои — тишь, да благодать. Иван женился на Василисе, и «жили они долго и счастливо», да не тут-то было. Иван целыми днями пропадает с Волком на службе — укрепляет рубежи и оборонную мощь, мечтает перевести стрелки часов на семь часов назад, чтобы меньше спать, и больше работать. А Василисе — скучно, как всем девушкам, ей хочется романтики, ну, такой, как в сказках. И тогда она решает организовать свое похищение… Однако, когда такое бывало, что в сказках все получалось так, как задумывалось?
Бонусы: нет

Качество: DVD5 R5
Формат: DVD-Video
Видео кодек: MPEG2
Аудио кодек: AC3
Видео: PAL 16:9 (720x576(0.525)) MPEG Video, 25,000 кадр/сек, 5440 Кбит/сек
Аудио #1: Russian (Dolby AC3, 6 ch) 448 Кбит/сек, 48,0 КГц
Аудио #2: Russian (DTS, 5 ch) 768 Кбит/сек, 48,0 КГц
Аудио #3: Russian (Dolby AC3, 2 ch) 192 Кбит/сек, 48,0 КГц



Title: Ivan.Carevich.i.Seryj.Volk.2.DVD5
Size: 3.63 Gb ( 3 810 158,00 KBytes ) - DVD-5
Enabled regions: 1, 2, 3, 4, 5, 6, 7, 8

VTS_01 :
Play Length: 00:00:25+{00:00:25}+{00:00:25}
Video: PAL 4:3 (720x576) VBR
Audio:
Russian (Dolby AC3, 6 ch)
English (Dolby AC3, 6 ch)
English (Dolby AC3, 6 ch)

VTS_02 :
Play Length: 01:09:46
Video: PAL 16:9 (720x576) VBR, Auto Pan&Scan, Auto Letterboxed
Audio:
Russian, AC3, 3/2 (L,C,R,SL,SR)+LFE ch, 448 kbps, Delay 0 mSec
Russian, DTS, 3/2 (L,C,R,SL,SR), 768 kbps, Delay 0 mSec
Russian, AC3, 2/0 (L,R) ch, 192 kbps, Delay 0 mSec

* Menus Information *

VIDEO_TS Menu
Video:
PAL 4:3 (720x576) VBR
English Language Unit :
Title Menu

VTS_01 Menu
Video:
PAL 4:3 (720x576) VBR
Audio:
Not specified (Dolby AC3, 2 ch)
English Language Unit :
Root Menu
Chapter (PTT) Menu

VTS_02 Menu
Video:
PAL 4:3 (720x576) VBR
English Language Unit :
Root Menu
Audio Menu
Chapter (PTT) Menu
Общее
Полное имя : K:Новинки 2013Ivan.Carevich.i.Seryj.Volk.2.DVD5VIDEO_TSVTS_02_2.VOB
Формат : MPEG-PS
Размер файла : 1024 Мбайт
Продолжительность : 20 м.
Режим общего битрейта : Переменный
Общий поток : 6973 Кбит/сек

Видео
Идентификатор : 224 (0xE0)
Формат : MPEG Video
Версия формата : Version 2
Профиль формата : Main@Main
Параметр BVOP формата : Да
Параметр матрицы формата : По умолчанию
Параметр GOP формата : M=3, N=12
Продолжительность : 20 м.
Вид битрейта : Переменный
Битрейт : 5440 Кбит/сек
Максимальный битрейт : 8500 Кбит/сек
Ширина : 720 пикселей
Высота : 576 пикселей
Соотношение сторон : 16:9
Частота кадров : 25,000 кадров/сек
Стандарт вещания : PAL
Цветовое пространство : YUV
Субдискретизация насыщенности : 4:2:0
Битовая глубина : 8 бит
Тип развёртки : Прогрессивная
Метод сжатия : С потерями
Бит/(Пиксели*Кадры) : 0.525
Временной код первого кадра : 00:20:47:23
Оригинал временного кода : Group of pictures header
Размер потока : 798 Мбайт (78%)

Аудио #1
Идентификатор : 189 (0xBD)-128 (0x80)
Формат : AC-3
Формат/Информация : Audio Coding 3
Расширение режима : CM (complete main)
Параметр Endianness формата : Big
Режим смешивания : DVD-Video
Продолжительность : 20 м.
Вид битрейта : Постоянный
Битрейт : 448 Кбит/сек
Каналы : 6 каналов
Расположение каналов : Front: L C R, Side: L R, LFE
Частота : 48,0 КГц
Битовая глубина : 16 бит
Метод сжатия : С потерями
Задержка видео : -576 мс.
Размер потока : 65,8 Мбайт (6%)

Аудио #2
Идентификатор : 189 (0xBD)-130 (0x82)
Формат : AC-3
Формат/Информация : Audio Coding 3
Расширение режима : CM (complete main)
Параметр Endianness формата : Big
Режим смешивания : DVD-Video
Продолжительность : 20 м.
Вид битрейта : Постоянный
Битрейт : 192 Кбит/сек
Каналы : 2 канала
Расположение каналов : Front: L R
Частота : 48,0 КГц
Битовая глубина : 16 бит
Метод сжатия : С потерями
Задержка видео : -512 мс.
Размер потока : 28,2 Мбайт (3%)

Аудио #3
Идентификатор : 189 (0xBD)-137 (0x89)
Формат : DTS
Формат/Информация : Digital Theater Systems
Режим : 16
Параметр Endianness формата : Big
Режим смешивания : DVD-Video
Продолжительность : 20 м.
Вид битрейта : Постоянный
Битрейт : 755 Кбит/сек
Каналы : 6 каналов
Расположение каналов : Front: L C R, Side: L R, LFE
Частота : 48,0 КГц
Битовая глубина : 24 бит
Метод сжатия : С потерями
Задержка видео : -597 мс.
Размер потока : 111 Мбайт (11%)










pb.wtf



Скачать Иван Царевич и Серый Волк 2 через торрент http://i60.fastpic.ru/big/2014/0116/b3/8587692e6751ec2d8df4549ced5c5eb3.jpg Скачать фильм Иван Царевич и Серый Волк 2 через торрент бесплантно в хорошем качестве Описание: В Тридевятом царстве, где живут наши герои — тишь, да благодать. Иван женился на Василисе, и «жили они долго и счастливо», да не ... 9.9 10 43
Info! Золотая раздача, скачанное не засчитывается.
Торрент: Зарегистрирован [2014-01-16 18:52] · скачан: 1 069 раз
Статус: √ проверено
Размер: 3.63 GB
Как cкачать? Как скачать Иван Царевич и Серый Волк 2 через торрент | UTorrent

28-11-2019 20:33  

Отключить всю рекламу на сайте

17-01-2014 13:55 Иван Царевич и Серый Волк 2 Скачать торрент  

Автору спасибо))) давно ждал в качестве)))pb.wtf



18-01-2014 13:10 Иван Царевич и Серый Волк 2 Скачать торрент  

Косяк с торрентом, качается сутки, весит 3,63, а скачал уже более 8 гб и всё не может докачаться!pb.wtf



    Дорогой пользователь! Огромная просьба, поблагодарите релизера, оцените раздачу и оставьте свои комментарий, если Вы скачали Иван Царевич и Серый Волк 2 через торрент бесплатно! Внесите свою лепту в развитие PiratBit!
    Комментировать посты могут только пользователи прошедшие не сложную регистрацию
    Показать сообщения:    

    Иван Царевич и Серый Волк 2 через торрент
    Скачать бесплатно Иван Царевич и Серый Волк 2
    Иван Царевич и Серый Волк 2 скачать торрент
    Иван Царевич и Серый Волк 2 смотреть онлайн
    Cкачать фильм Иван Царевич и Серый Волк 2 бесплатно
    Иван Царевич и Серый Волк 2 скачать торрент в хорошем качестве
    Иван Царевич и Серый Волк 2 смотреть онлайн бесплатно в хорошем качестве


    Вы не можете начинать темы
    Вы не можете отвечать на сообщения
    Вы не можете редактировать свои сообщения
    Вы не можете удалять свои сообщения
    Вы не можете голосовать в опросах
    Вы не можете прикреплять файлы к сообщениям
    Вы можете скачивать файлы