2 сезон

iTunes

1 сезон

1

iTunes

iTunes

iTunes

1 сезон

RePack

30

ИГРА 18+

pack

ВАЖНО

!!Акция!!

Alien_RageХит недели

RePack

MK11
pack

Забери бонус

RePack

jed

!!Акция!!

Alien_Rage

RePack

fifa19

RePack

Assassins Creed: Odyssey

RePack

NEED FOR SPEED™ PAYBACK

4 сезон

9 сезон

Бесстыжие 9 сезон

Все сериалы

все сериалы на PB.wtf

RePack

FAR CRY 5
  

Сталинград (Фёдор Бондарчук) [2013 г., Военный, драма, боевик, BDRip-AVC, Лицензия] pb.wtf

Сталинград через торрент pb.wtf

Размер: 1.52 GB | Добавлен: 6 лет 10 мес. назад | Торрент скачан:758 раз
Скачать  

04-12-2013 16:34 Сталинград Скачать торрент  

Сталинград
Год выпуска: 2013
Страна: Россия / Арт Пикчерс Студия, Нон-стоп Продакшн
Жанр: Военный, драма, боевик,
Продолжительность: 02:10:48
Тип релиза: Лицензия
Субтитры: Нет

Режиссер: Фёдор Бондарчук



В ролях: Мария Смольникова, Яна Студилина, Пётр Фёдоров, Томас Кречман, Сергей Бондарчук, Дмитрий Лысенков, Андрей Смоляков, Алексей Барабаш, Олег Волку, Хайнер Лаутербах,

Описание: 1942-й год. Сталинград. Советские войска планируют контрнаступление на немецкие части, занявшие правый берег Волги. Наступление сорвано. Лишь разведчикам под командованием капитана Громова удается перебраться на другой берег и закрепиться в одном из домов. Им дан приказ удержать его любой ценой. Кроме нескольких чудом уцелевших советских солдат они находят в доме его последнюю жительницу — 19-летнюю Катю.Приказ отбить дом, захваченный противником, получает немецкий офицер Кан. На фоне одного из самых кровопролитных сражений в истории человечества разворачиваются истории любви и драматического противостояния характеров.

Качество: BDRip-AVC
Формат: MKV
Видео кодек: H.264
Аудио кодек: AC3
Видео: 960x394 (2,40:1), 23,976 fps, 1214 Кbps, 0.134 bit/pixel
Аудио#1: 48 kHz, AC3 Dolby Digital, 3/2 (L,C,R,l,r) + LFE ch, 448.00 kbps

Релиз группы:
Автор рипа: potroks





Общее
Уникальный идентификатор : 223229141452069298583614147870624253137 (0xA7F05E698FB924E5AD26F030A41B04D1)
Полное имя : Stalingrad.2013.RUS.BDRip.x264.-HELLYWOOD..mkv
Формат : Matroska
Версия формата : Version 4 / Version 2
Размер файла : 1,52 Гбайт
Продолжительность : 2 ч. 10 м.
Общий поток : 1664 Кбит/сек
Название фильма : HELLYWOOD - rip by potroks
Дата кодирования : UTC 2013-12-04 15:51:06
Программа кодирования : mkvmerge v5.9.0 ('On The Loose') built on Dec 15 2012 16:39:58
Библиотека кодирования : libebml v1.3.0 + libmatroska v1.4.0

Видео
Идентификатор : 1
Формат : AVC
Формат/Информация : Advanced Video Codec
Профиль формата : High@L4.1
Параметр CABAC формата : Да
Параметр ReFrames формата : 12 кадров
Идентификатор кодека : V_MPEG4/ISO/AVC
Продолжительность : 2 ч. 10 м.
Битрейт : 1214 Кбит/сек
Ширина : 960 пикселей
Высота : 394 пикселя
Соотношение сторон : 2,40:1
Режим частоты кадров : Постоянный
Частота кадров : 23,976 кадра/сек
Цветовое пространство : YUV
Субдискретизация насыщенности : 4:2:0
Битовая глубина : 8 бит
Тип развёртки : Прогрессивная
Бит/(Пиксели*Кадры) : 0.134
Размер потока : 1,08 Гбайт (71%)
Заголовок : Сталинград
Библиотека кодирования : x264 core 130 r2273 b3065e6
Настройки программы : cabac=1 / ref=12 / deblock=1:-3:-2 / analyse=0x3:0x133 / me=umh / subme=11 / psy=1 / psy_rd=1.08:0.02 / mixed_ref=1 / me_range=48 / chroma_me=1 / trellis=2 / 8x8dct=1 / cqm=0 / deadzone=21,11 / fast_pskip=0 / chroma_qp_offset=-3 / threads=9 / lookahead_threads=6 / sliced_threads=0 / nr=0 / decimate=0 / interlaced=0 / bluray_compat=0 / constrained_intra=0 / bframes=13 / b_pyramid=2 / b_adapt=2 / b_bias=0 / direct=3 / weightb=1 / open_gop=0 / weightp=2 / keyint=250 / keyint_min=23 / scenecut=40 / intra_refresh=0 / rc_lookahead=60 / rc=2pass / mbtree=0 / bitrate=1214 / ratetol=1.0 / qcomp=0.70 / qpmin=0 / qpmax=69 / qpstep=4 / cplxblur=20.0 / qblur=0.5 / vbv_maxrate=20000 / vbv_bufsize=20000 / nal_hrd=none / ip_ratio=1.30 / pb_ratio=1.25 / aq=1:0.90
Язык : Russian
Default : Да
Forced : Нет

Аудио
Идентификатор : 2
Формат : AC-3
Формат/Информация : Audio Coding 3
Расширение режима : CM (complete main)
Параметр Endianness формата : Big
Идентификатор кодека : A_AC3
Продолжительность : 2 ч. 10 м.
Вид битрейта : Постоянный
Битрейт : 448 Кбит/сек
Каналы : 6 каналов
Расположение каналов : Front: L C R, Side: L R, LFE
Частота : 48,0 КГц
Битовая глубина : 16 бит
Метод сжатия : С потерями
Размер потока : 419 Мбайт (27%)
Заголовок : DD 5.1 @ 448 kbps
Язык : Russian
Default : Да
Forced : Нет

Меню
00:00:00.000 : en:(01)00:00:00:000
00:15:37.436 : en:(02)00:15:37:436
00:31:59.334 : en:(03)00:31:59:334
00:46:05.888 : en:(04)00:46:05:888
01:03:22.048 : en:(05)01:03:22:048
01:20:44.840 : en:(06)01:20:44:840
01:35:53.164 : en:(07)01:35:53:164
01:51:11.790 : en:(08)01:51:11:790
02:10:48.674 : en:(09)02:10:48:674

pb.wtf



Скачать Сталинград через торрент http://i59.fastpic.ru/big/2013/1203/3a/1e65cdcaa1553151a4d8dc7f515c083a.jpg Скачать фильм Сталинград через торрент бесплантно в хорошем качестве Описание: 1942-й год. Сталинград. Советские войска планируют контрнаступление на немецкие части, занявшие правый берег Волги. Наступление ... 9.1 10 23
Info! Золотая раздача, скачанное не засчитывается.
Торрент: Зарегистрирован [2013-12-05 21:10] · скачан: 758 раз
Статус: √ проверено
Размер: 1.52 GB
Как cкачать? Как скачать Сталинград через торрент | qTorrent

% Раздел Тема Автор DL S | L
Старые игры [ 1.11 GB ] Сталинград [RePack RUS] by RUSJATINA RUSJATINA Скачать
1 | 0
Документальные фильмы и телепередачи [ 857 MB ] Сталинград. Мы еще живы или нет? [2018 Документальный SATRip] Armstrong Скачать
1 | 0
Фильмы [HD 720p, 1080p] (Хороший звук DUB, MVO) [ 9.86 GB ] Сталинград / Stalingrad [1993 военный BDRip 720p] DVO + AVO + Original ger + Sub rus eng -Lexx- Скачать
1 | 0
Наши фильмы (HD, WEB-DL 720p, 1080p) [ 12.8 GB ] Сталинград [2013 Военный BDRip 1080p ] лисяра Скачать
1 | 0
Наши фильмы (HD, WEB-DL 720p, 1080p) [ 5.37 GB ] Сталинград [2013 военный BDRip 720p] [] potroks Скачать
1 | 0
Наши фильмы (Blu-ray, BD-Remux, HDDVD) [ 38.84 GB ] Сталинград [2013 военный Blu-ray EUR] Russian Mafia Скачать
1 | 0
Наши новые фильмы 2013 [ 1.46 GB ] Сталинград [2013 военный HDRip][] MihailHD Скачать
1 | 0

28-11-2019 20:33  

Отключить всю рекламу на сайте

04-12-2013 17:15 Сталинград Скачать торрент  

Эта блевота может нравиться только конченным недоумкам , отупевшим от америкосовского кинематографа.pb.wtf



04-12-2013 17:32 Сталинград Скачать торрент  

Одно непонятно,к чему такое количество раздач этого фильма на трекере?По моему,все уже посмотрели и составили своё мнение за эти 4 дня.pb.wtf



07-01-2014 19:47 Сталинград Скачать торрент  

Ну посмотрим этот нашумевший фильм:)))Не могу больше себя сдерживать качаю!!!:)))pb.wtf



11-01-2014 05:14 Сталинград Скачать торрент  

бондарь в своём репертуаре... дерьмище очередноеpb.wtf



12-01-2014 15:55 Сталинград Скачать торрент  

Глядя на рекламу по телеку,когда выходили люди со слезами,очень хотелось глянуть в кинотеатре,но благо не смогли поехать...
Рекламу ироды умеют делать,а фильм,если бы был без пред.рекламы,то как одноразовый на компе можно глянуть,ну а кто посмотрел в кино-жаль ваших денег на просмотр этого так сказать шедевраpb.wtf



    Дорогой пользователь! Огромная просьба, поблагодарите релизера, оцените раздачу и оставьте свои комментарий, если Вы скачали Сталинград через торрент бесплатно! Внесите свою лепту в развитие PiratBit!
    Комментировать посты могут только пользователи прошедшие не сложную регистрацию
    Показать сообщения:    

    Сталинград через торрент
    Скачать бесплатно Сталинград
    Сталинград скачать торрент
    Сталинград смотреть онлайн
    Cкачать фильм Сталинград бесплатно
    Сталинград скачать торрент в хорошем качестве
    Сталинград смотреть онлайн бесплатно в хорошем качестве


    Вы не можете начинать темы
    Вы не можете отвечать на сообщения
    Вы не можете редактировать свои сообщения
    Вы не можете удалять свои сообщения
    Вы не можете голосовать в опросах
    Вы не можете прикреплять файлы к сообщениям
    Вы можете скачивать файлы