2 сезон

iTunes

MVO

1

2 сезон

iTunes

iTunes

1 сезон

RePack

30

Новинка

ВАЖНО

ИГРА 18+

pack

RePack

MK11
pack

Легкие деньги

RePack

jed

RePack

fifa19

RePack

RDR2

RePack

NEED FOR SPEED™ PAYBACK

4 сезон

9 сезон

Бесстыжие 9 сезон

Все сериалы

все сериалы на PB.wtf

RePack

FAR CRY 5

Anonymous, доброй ночи, мы не успеваем собрать деньги на оплату серверов за декабрь и январь, помогите нам пожалуйста в это трудное время. В качестве благодарности мы отключим Вам всю рекламу на сайте (укажите свой ник в строку Ваше имя)!

×
  
Magnet ссылка

За кадром.. / In a World.. (Лэйк Белл / Lake Bell) [2013, США, комедия, HDRip,Профессиональный (многоголосый, закадровый - Лицензия) pb.wtf

За кадром.. через торрент pb.wtf

Размер: 1.37 GB | Добавлен: 6 лет 11 мес. назад | Торрент скачан:606 раз
Скачать  

18-01-2014 09:56 За кадром.. Скачать торрент  


За кадром... / In a World...

«Speak up and let your voice be heard»

Год выпуска:2013
Страна:США
Жанр:комедия

Продолжительность: 01:32:57
Перевод:Профессиональный (многоголосый, закадровый - Лицензия)

Субтитры: Нет
Режиссер:Лэйк Белл / Lake Bell
В ролях:Лэйк Белл (Carol), Роб Кордри (Moe), Александра Холден (Jamie), Ева Лонгория (играет саму себя), Кен Марино (Gustav), Деметри Мартин (Louis), Фред Меламед (Sam), Тиг Нотаро (Cher), Ник Офферман (Heners), Михаэлла Уоткинс (Dani), Джина Дэвис (Katherine Huling), Stephanie Allynne (Nancy)
  • Описание:
    Завязка сюжета могла прийти в голову только человеку с кинематографическим стажем: Лэйк играет тренера по речи и специалиста по озвучке трейлеров Кэрол. Отец ее героини Сэм Сото - звезда цеха и домашний тиран, отказывающий Кэрол от отчего дома, дабы освободить место для своей 30-летней подружки. Война отцов и детей переносится на оба фронта - личный и профессиональный - когда Кэрол вступает в бой за право озвучивать трейлеры «Амазонских игр».

    Качество:HDRip
    Формат:AVI
    Видео кодек:XviD
    Аудио кодек:AC3
    Видео: XviD, 720x304 (2.35:1), 1710 kbps, 23,976 fps, 0,326 bpp
    Аудио: AC3 / 5.1 / 48 kHz / 384 kbps / 16 bit

Код:

General
Complete name                            : D:ТорентыZa.Kadrom.2013.P.HDRip.1400Mb.avi
Format                                   : AVI
Format/Info                              : Audio Video Interleave
File size                                : 1.37 GiB
Duration                                 : 1h 32mn
Overall bit rate                         : 2 103 Kbps
Writing application                      : VirtualDubMod 1.5.10.2 (build 2540/release)
Writing library                          : VirtualDubMod build 2540/release

Video
ID                                       : 0
Format                                   : MPEG-4 Visual
Format profile                           : Advanced Simple@L5
Format settings, BVOP                    : 2
Format settings, QPel                    : No
Format settings, GMC                     : No warppoints
Format settings, Matrix                  : Custom
Codec ID                                 : XVID
Codec ID/Hint                            : XviD
Duration                                 : 1h 32mn
Bit rate                                 : 1 710 Kbps
Width                                    : 720 pixels
Height                                   : 304 pixels
Display aspect ratio                     : 2.35:1
Frame rate                               : 23.976 fps
Color space                              : YUV
Chroma subsampling                       : 4:2:0
Bit depth                                : 8 bits
Scan type                                : Progressive
Compression mode                         : Lossy
Bits/(Pixel*Frame)                       : 0.326
Stream size                              : 1.11 GiB (81%)
Writing library                          : XviD 1.2.1 (UTC 2008-12-04)

Audio
ID                                       : 1
Format                                   : AC-3
Format/Info                              : Audio Coding 3
Mode extension                           : CM (complete main)
Codec ID                                 : 2000
Duration                                 : 1h 32mn
Bit rate mode                            : Constant
Bit rate                                 : 384 Kbps
Channel(s)                               : 6 channels
Channel positions                        : Front: L C R, Side: L R, LFE
Sampling rate                            : 48.0 KHz
Bit depth                                : 16 bits
Compression mode                         : Lossy
Stream size                              : 255 MiB (18%)
Alignment                                : Split accross interleaves
Interleave, duration                     : 42 ms (1.00 video frame)
Interleave, preload duration             : 500 ms


Скриншоты:

Трейлеры к фильмам [2014]
pb.wtf



Скачать За кадром.. через торрент http://pic.kartinco.top/images/6/ordi9.jpg Скачать фильм За кадром.. через торрент бесплантно в хорошем качестве Описание:Завязка сюжета могла прийти в голову только человеку с кинематографическим стажем: Лэйк играет тренера по речи и специалиста по ... 8.7 10 15
Info! Золотая раздача, скачанное не засчитывается.
Торрент: Зарегистрирован [2014-01-18 09:56] · скачан: 606 раз
Статус: √ проверено
Размер: 1.37 GB
Как cкачать? Как скачать За кадром.. через торрент | UTorrent

% Раздел Тема Автор DL S | L
Фильмы [HD 720p, 1080p] (Хороший звук DUB, MVO) [ 6.11 GB ] За кадром.. / In a World.. [2013 BDRip 720p многоголосый] кэп Скачать
1 | 0
Фильмы (Blu-ray, BD-Remux, HDDVD) [ 17.84 GB ] За кадром.. / In a World.. [2013 BDRemux Ворон Скачать
1 | 0

28-11-2019 20:33  

Отключить всю рекламу на сайте

18-01-2014 16:48 За кадром.. Скачать торрент  

Цитата:

Режиссер:Лэйк Белл
В ролях:Лэйк Белл

Как правило, ничего хорошего в таких случаях не бывает. Что ж, посмотрим...
---
Vetаl, спасибо за раздачу!pb.wtf



19-01-2014 08:20 За кадром.. Скачать торрент  

Liloo_Foofyga писал(а):

Цитата:

Режиссер:Лэйк Белл
В ролях:Лэйк Белл

Как правило, ничего хорошего в таких случаях не бывает. Что ж, посмотрим...

В Железном человеке играл и снимал тоже режиссер, так то)pb.wtf



19-01-2014 12:01 За кадром.. Скачать торрент  

Surovij писал(а):

В Железном человеке

О да! ЖелЧел шедевр всех времён и народов, фильм, определивший развитие кинематографа на тысячелетия вперёд.pb.wtf



    Дорогой пользователь! Огромная просьба, поблагодарите релизера, оцените раздачу и оставьте свои комментарий, если Вы скачали За кадром.. через торрент бесплатно! Внесите свою лепту в развитие PiratBit!
    Комментировать посты могут только пользователи прошедшие не сложную регистрацию
    Показать сообщения:    

    За кадром.. через торрент
    Скачать бесплатно За кадром..
    За кадром.. скачать торрент
    За кадром.. смотреть онлайн
    Cкачать фильм За кадром.. бесплатно
    За кадром.. скачать торрент в хорошем качестве
    За кадром.. смотреть онлайн бесплатно в хорошем качестве


    Вы не можете начинать темы
    Вы не можете отвечать на сообщения
    Вы не можете редактировать свои сообщения
    Вы не можете удалять свои сообщения
    Вы не можете голосовать в опросах
    Вы не можете прикреплять файлы к сообщениям
    Вы можете скачивать файлы