Ссылка на приватное зеркало всего за 1$. Внимание количество ограничено!!!

iTunes

iTunes

iTunes

1

iTunes

iTunes

iTunes

iTunes

iTunes

30
pack

$ от Little Big

ВАЖНО

!!Акция!!

Alien_RageХит недели

RePack

Resident Evil 21

ИГРА 18+

pack

RePack

jed

!!Акция!!

Alien_Rage

RePack

fifa19

RePack

Assassins Creed: Odyssey

RePack

NEED FOR SPEED™ PAYBACK

4 сезон

9 сезон

Бесстыжие 9 сезон

Все сериалы

все сериалы на PB.wtf

RePack

FAR CRY 5
  

Разборки в маленьком Токио / Showdown in Little Tokyo (Марк Л. Лестер / Mark L. Lester) [1991, США, боевик, драма, комедия, криминал, HDTVRip 720p] DUB + AVO (Гаврилов) + Eng pb.wtf

Разборки в маленьком Токио через торрент pb.wtf

Размер: 2.87 GB | Добавлен: 6 лет 5 мес. назад | Торрент скачан:75 раз
Скачать  

18-01-2014 19:32 Разборки в маленьком Токио Скачать торрент  

Разборки в маленьком Токио / Showdown in Little Tokyo
Год выпуска: 1991
Страна: США
Жанр: боевик, триллер, комедия, криминал,
Продолжительность: 01:15:05
Перевод: Дублированный, авторский одноголосый (Гаврилов)
Режиссер: Марк Л. Лестер / Mark L. Lester
В ролях: Дольф Лундгрен, Брэндон Ли, Кэри-Хироюки Тагава, Тиа Каррере, Тоширо Обата, Филип Тан, Родни Кагеяма, Эрни Лайвли, Рени Гриффин, Рейд Асато...,
Они — лос-анджелесские полицейские, которые перемежают удары с попаданием в газетные заголовки, во время Разборки в маленьком Токио. Герой Дольфа Лундгрена — мускулистый американский самурай, сведущий в восточных традициях. Герой Брэндона Ли — «деревенский увалень», которому предстоит немало драк. Им двоим придется круто на войне против японской наркомафии Лос-Анджелеса.
Общее
Уникальный идентификатор : 238327563236148276793862198250510483731 (0xB34C3814609B91FD90B186EADCE80113)
Полное имя : E:ФильмыRipsРазборки в маленьком Токио_Showdown in Little Tokyo [1991.HDTVRip 720p.Dub.AVO.Eng]-HQFans.mkv
Формат : Matroska
Версия формата : Version 2
Размер файла : 2,87 Гбайт
Продолжительность : 1 ч. 15 м.
Общий поток : 5475 Кбит/сек
Дата кодирования : UTC 2011-09-12 13:17:21
Программа кодирования : mkvmerge v4.9.1 ('Ich will') сборка от Aug 10 2011 09:31:20
Библиотека кодирования : libebml v1.2.1 + libmatroska v1.2.0

Видео
Идентификатор : 1
Формат : AVC
Формат/Информация : Advanced Video Codec
Профиль формата : High@L4.0
Параметр CABAC формата : Да
Параметр ReFrames формата : 9 кадров
Идентификатор кодека : V_MPEG4/ISO/AVC
Продолжительность : 1 ч. 15 м.
Битрейт : 4900 Кбит/сек
Ширина : 1276 пикселей
Высота : 720 пикселей
Соотношение сторон : 16:9
Режим частоты кадров : Постоянный
Частота кадров : 25,000 кадров/сек
Цветовое пространство : YUV
Субдискретизация насыщенности : 4:2:0
Битовая глубина : 8 бит
Тип развёртки : Прогрессивная
Бит/(Пиксели*Кадры) : 0.213
Размер потока : 2,51 Гбайт (87%)
Заголовок : Showdown in Little Tokyo
Библиотека кодирования : x264 core 116 r2074 2641b9e
Настройки программы : cabac=1 / ref=9 / deblock=1:-3:-3 / analyse=0x3:0x133 / me=umh / subme=10 / psy=1 / psy_rd=1.00:0.20 / mixed_ref=1 / me_range=32 / chroma_me=1 / trellis=2 / 8x8dct=1 / cqm=0 / deadzone=21,11 / fast_pskip=1 / chroma_qp_offset=-3 / threads=6 / sliced_threads=0 / nr=0 / decimate=1 / interlaced=0 / bluray_compat=0 / constrained_intra=0 / bframes=6 / b_pyramid=2 / b_adapt=2 / b_bias=0 / direct=3 / weightb=1 / open_gop=0 / weightp=2 / keyint=250 / keyint_min=25 / scenecut=40 / intra_refresh=0 / rc_lookahead=60 / rc=2pass / mbtree=1 / bitrate=4900 / ratetol=1.0 / qcomp=0.60 / qpmin=0 / qpmax=69 / qpstep=4 / cplxblur=20.0 / qblur=0.5 / ip_ratio=1.40 / aq=1:1.00
Язык : English
Default : Да
Forced : Нет

Аудио #1
Идентификатор : 2
Формат : AC-3
Формат/Информация : Audio Coding 3
Расширение режима : CM (complete main)
Параметр Endianness формата : Big
Идентификатор кодека : A_AC3
Продолжительность : 1 ч. 15 м.
Вид битрейта : Постоянный
Битрейт : 192 Кбит/сек
Каналы : 2 канала
Расположение каналов : Front: L R
Частота : 48,0 КГц
Битовая глубина : 16 бит
Метод сжатия : С потерями
Размер потока : 103 Мбайт (4%)
Заголовок : AC3 2.0 192kbps Дубляж
Язык : Russian
Default : Да
Forced : Нет

Аудио #2
Идентификатор : 3
Формат : AC-3
Формат/Информация : Audio Coding 3
Расширение режима : CM (complete main)
Параметр Endianness формата : Big
Идентификатор кодека : A_AC3
Продолжительность : 1 ч. 15 м.
Вид битрейта : Постоянный
Битрейт : 192 Кбит/сек
Каналы : 2 канала
Расположение каналов : Front: L R
Частота : 48,0 КГц
Битовая глубина : 16 бит
Метод сжатия : С потерями
Размер потока : 103 Мбайт (4%)
Заголовок : AC3 2.0 192kbps Гаврилов
Язык : Russian
Default : Нет
Forced : Нет

Аудио #3
Идентификатор : 4
Формат : AC-3
Формат/Информация : Audio Coding 3
Расширение режима : CM (complete main)
Параметр Endianness формата : Big
Идентификатор кодека : A_AC3
Продолжительность : 1 ч. 15 м.
Вид битрейта : Постоянный
Битрейт : 192 Кбит/сек
Каналы : 2 канала
Расположение каналов : Front: L R
Частота : 48,0 КГц
Битовая глубина : 16 бит
Метод сжатия : С потерями
Размер потока : 103 Мбайт (4%)
Заголовок : AC3 2.0 192kbps
Язык : English
Default : Нет
Forced : Нет
Качество: HDTVRip 720p Формат: MKV Видео кодек: H.264 Аудио кодек: AC3
Видео: 1276x720, ~4900 Kbps, 25 fps, bpp 0.213
Аудио#1: AC3 2.0 ch, 48 KHz, битрейт аудио: 192 кб/с - Дубляж
Аудио#2: AC3 2.0 ch, 48 KHz, битрейт аудио: 192 кб/с - Гаврилов
Аудио#3: AC3 2.0 ch, 48 KHz, битрейт аудио: 192 кб/с - Английский
скриншот   скриншот   скриншот  pb.wtf



Скачать Разборки в маленьком Токио через торрент http://pic.kartinco.top/images/6/9klm1.jpg Скачать фильм Разборки в маленьком Токио через торрент бесплантно в хорошем качестве В ролях: Дольф Лундгрен, Брэндон Ли, Кэри-Хироюки Тагава, Тиа Каррере, Тоширо Обата, Филип Тан, Родни Кагеяма, Эрни Лайвли, Рени Гриффин, ... 10 10 8
Info! Золотая раздача, скачанное не засчитывается.
Торрент: Зарегистрирован [2014-01-18 19:32] · скачан: 75 раз
Статус: √ проверено
Размер: 2.87 GB
Как cкачать? Как скачать Разборки в маленьком Токио через торрент | qTorrent

28-11-2019 20:33  

Отключить всю рекламу на сайте

    Дорогой пользователь! Огромная просьба, поблагодарите релизера, оцените раздачу и оставьте свои комментарий, если Вы скачали Разборки в маленьком Токио через торрент бесплатно! Внесите свою лепту в развитие PiratBit!
    Комментировать посты могут только пользователи прошедшие не сложную регистрацию
    Показать сообщения:    

    Разборки в маленьком Токио через торрент
    Скачать бесплатно Разборки в маленьком Токио
    Разборки в маленьком Токио скачать торрент
    Разборки в маленьком Токио смотреть онлайн
    Cкачать фильм Разборки в маленьком Токио бесплатно
    Разборки в маленьком Токио скачать торрент в хорошем качестве
    Разборки в маленьком Токио смотреть онлайн бесплатно в хорошем качестве


    Вы не можете начинать темы
    Вы не можете отвечать на сообщения
    Вы не можете редактировать свои сообщения
    Вы не можете удалять свои сообщения
    Вы не можете голосовать в опросах
    Вы не можете прикреплять файлы к сообщениям
    Вы можете скачивать файлы