Ссылка на приватное зеркало всего за 1$. Внимание количество ограничено!!!


iTunes

1+1

iTunes

мы

WEB-DL

1

iTunes

Чернобыль

iTunes

Ральф против интернета

Лицензия

ПШазам

Лицензия

Оно 2

WEB-DL

30
pack

Вам бонус

ВАЖНО

!!Акция!!

Alien_RageХит недели

RePack

Resident Evil 21

ИГРА 18+

pack

RePack

jed

!!Акция!!

Alien_Rage

RePack

fifa19

RePack

Assassins Creed: Odyssey

RePack

NEED FOR SPEED™ PAYBACK

4 сезон

9 сезон

Бесстыжие 9 сезон

Все сериалы

все сериалы на PB.wtf

RePack

FAR CRY 5
Ребята, катастрофически не хватает 1900р. для оплаты серверов за Октябрь (всвязи с блокировками трафик упал в 3 раза), 1-2р., выручайте.
  

Вечное возвращение (Кира Муратова) [ 2012 , Украина , мелодрама, комедия , WEB-DLRip ] pb.wtf

Вечное возвращение через торрент pb.wtf

Размер: 2.05 GB | Добавлен: 5 лет 10 мес. назад | Торрент скачан:111 раз
Скачать  

19-01-2014 03:31 Вечное возвращение Скачать торрент  

Вечное возвращениеГод выпуска:2012
Страна: Украина
Жанр: мелодрама, комедия
Продолжительность: 01:51:24
Перевод: Не требуется

Субтитры: Нет
Режиссер: Кира Муратова

В ролях: Рената Литвинова, Олег Табаков, Сергей Маковецкий, Алла Демидова, Виталий Линецкий, Наталья Бузько, Георгий Делиев, Ута Кильтер, Юрий Невгамонный, Геннадий Скарга, Евгения Барскова
Описание:
Герои фильма - мужчина и женщина, не встречавшиеся много лет. Пришел мужчина к женщине. Пришел в шляпе, да так волновался, что забыл ее снять. Они однокурсники, не виделись сто лет, он и живет давно в другом городе, а сюда приехал в командировку. И сразу к ней, с вопросом: как поделить себя между женой и любовницей? Ни один совет не звучит убедительно: он любит обеих, но жить с обеими не в состоянии. Озлившись, визитер хлопает дверью. Но приходит вновь, ведь других знакомых в этом городе у него нет. И возвращается. И возвращается.
Рейтинг
kinopoisk.ru: 6.508 (572)
imdb.com: 7.00 (62)
Качество: WEB-DLRip
Формат: AVI
Видео кодек: XviD
Аудио кодек: AC3
Видео: XviD, 720x384 (1.875), 2433 kbps, 25 fps, 0,352 bpp
Аудио: AC3 / 2.0 / 44 kHz / 192 kbps / 16 bit© Оформление by ФёдорOFF
General
Complete name : D:раздачиVechnoe.vozvraschenie.2012.WEB-DLRip.avi
Format : AVI
Format/Info : Audio Video Interleave
Format profile : OpenDML
File size : 2.05 GiB
Duration : 1h 51mn
Overall bit rate : 2 638 Kbps
Writing application : VirtualDubMod 1.5.10.3 || (build 2550/release)
Writing library : VirtualDubMod build 2550/release

Video
ID : 0
Format : MPEG-4 Visual
Format profile : Advanced Simple@L5
Format settings, BVOP : 1
Format settings, QPel : No
Format settings, GMC : No warppoints
Format settings, Matrix : Default (MPEG)
Codec ID : XVID
Codec ID/Hint : XviD
Duration : 1h 51mn
Bit rate : 2 434 Kbps
Width : 720 pixels
Height : 384 pixels
Display aspect ratio : 1.875
Frame rate : 25.000 fps
Color space : YUV
Chroma subsampling : 4:2:0
Bit depth : 8 bits
Scan type : Progressive
Compression mode : Lossy
Bits/(Pixel*Frame) : 0.352
Stream size : 1.89 GiB (92%)
Writing library : XviD 64

Audio
ID : 1
Format : AC-3
Format/Info : Audio Coding 3
Mode extension : CM (complete main)
Codec ID : 2000
Duration : 1h 51mn
Bit rate mode : Constant
Bit rate : 192 Kbps
Channel(s) : 2 channels
Channel positions : Front: L R
Sampling rate : 44.1 KHz
Bit depth : 16 bits
Compression mode : Lossy
Stream size : 153 MiB (7%)
Alignment : Split accross interleaves
Interleave, duration : 40 ms (1.00 video frame)
Interleave, preload duration : 500 ms
pb.wtf



Скачать Вечное возвращение через торрент http://i1.imageban.ru/out/2014/01/19/3264d34cef62b64f7b9be2684bb2d865.jpg Скачать фильм Вечное возвращение через торрент бесплантно в хорошем качестве Описание: Герои фильма - мужчина и женщина, не встречавшиеся много лет. Пришел мужчина к женщине. Пришел в шляпе, да так волновался, что ... 9.3 10 12
Info! Золотая раздача, скачанное не засчитывается.
Торрент: Зарегистрирован [2014-01-19 03:31] · скачан: 111 раз
Статус: √ проверено
Размер: 2.05 GB
Как cкачать? Как скачать Вечное возвращение через торрент | qTorrent

% Раздел Тема Автор DL S | L
Арт-хаус и авторское кино [ 4.35 GB ] Вечное возвращение [2012 DVD5] R5 voovaz Скачать
1 | 0

28-11-2019 20:33  

Отключить всю рекламу на сайте

    Дорогой пользователь! Огромная просьба, поблагодарите релизера, оцените раздачу и оставьте свои комментарий, если Вы скачали Вечное возвращение через торрент бесплатно! Внесите свою лепту в развитие PiratBit!
    Комментировать посты могут только пользователи прошедшие не сложную регистрацию
    Показать сообщения:    

    Вечное возвращение через торрент
    Скачать бесплатно Вечное возвращение
    Вечное возвращение скачать торрент
    Вечное возвращение смотреть онлайн
    Cкачать фильм Вечное возвращение бесплатно
    Вечное возвращение скачать торрент в хорошем качестве
    Вечное возвращение смотреть онлайн бесплатно в хорошем качестве


    Вы не можете начинать темы
    Вы не можете отвечать на сообщения
    Вы не можете редактировать свои сообщения
    Вы не можете удалять свои сообщения
    Вы не можете голосовать в опросах
    Вы не можете прикреплять файлы к сообщениям
    Вы можете скачивать файлы