2 сезон

iTunes

1 сезон

1

iTunes

iTunes

iTunes

1 сезон

RePack

30

ИГРА 18+

pack

ВАЖНО

!!Акция!!

Alien_RageХит недели

RePack

MK11
pack

Забери бонус

RePack

jed

!!Акция!!

Alien_Rage

RePack

fifa19

RePack

Assassins Creed: Odyssey

RePack

NEED FOR SPEED™ PAYBACK

4 сезон

9 сезон

Бесстыжие 9 сезон

Все сериалы

все сериалы на PB.wtf

RePack

FAR CRY 5
  

Земляк / Сезон: Серии: 1-6 из 6 (Максим Бриус) [2014, боевик, SATRip] pb.wtf

Земляк через торрент pb.wtf

Размер: 4.01 GB | Добавлен: 6 лет 9 мес. назад | Торрент скачан:884 раза
Скачать  

19-01-2014 09:38 Земляк Скачать торрент  


Земляк


  • Год выпуска:2013
  • Страна:Россия
  • Жанр:боевик
  • Продолжительность:6x00:53:09
  • Перевод:Не требуется

  • Субтитры: Нет
    • Режиссер:Максим Бриус
    • Сценарий: Александр Молчанов, Владимир Забалуев, Алексей Зензинов, Максим Бриус
    • Продюсер: Александр Кушаев, Евгений Арендаревич, Юлия Ерешко

  • В ролях:Николай Мачульский (Матвей Широков), Вероника Пляшкевич (Ольга Куликова), Илья Капанец (Антошка), Сергей Власов (Юрий Шишов), Лариса Маршалова (Анна), Валерий Зеленский (Паша), Олег Гарбуз (Мохов), Игорь Степанов (Фёдор Балакирев), Виктор Молчан (Борис Устюгов), Игорь Денисов (Василий Алексеевич Самойлов), Алексей Соров (Гриня), Сергей Юревич (Немец)

    • Описание:
      Если ты прав, это еще не значит, что справедливость будет на твоей стороне. Такую горькую истину на собственном опыте пришлось познать майору полиции Матвею Широкову. Будучи отличным оперативником, он «пошел на принцип» и, несмотря на приказ руководства, надел наручники на сына «крупной шишки» Руслана Алпарова, который оказался причастен к изнасилованию и убийству молодой девчонки. Но за блестяще организованную операцию Матвей получает отнюдь не орден, а нагоняй и увольнение...


    • Качество:SATRip
    • Формат:AVI
    • Видео кодек: XviD
    • Аудио кодек:MP3
    • Видео: XviD, 720x400 (16:9), 1794 kbps, 25 fps, 0,249 bpp
    • Аудио: / 2.0 / 48 kHz / 128 kbps /


    Код:

    D:видеоZemlakZemlyak.1.2013.SATRip.avi
    General
    Complete name : D:видеоZemlakZemlyak.1.2013.SATRip.avi
    Format : AVI
    Format/Info : Audio Video Interleave
    File size : 735 MiB
    Duration : 53mn 9s
    Overall bit rate : 1 933 Kbps
    Writing application : VirtualDubMod 1.5.10.2 (build 2540/release)
    Writing library : VirtualDub build 32507/release
    Video #0
    ID : 0
    Format : MPEG-4 Visual
    Format profile : Advanced Simple@L5
    Format settings, BVOP : 2
    Format settings, QPel : No
    Format settings, GMC : No warppoints
    Format settings, Matrix : Default (MPEG)
    Codec ID : XVID
    Codec ID/Hint : XviD
    Duration : 53mn 9s
    Bit rate : 1 795 Kbps
    Width : 720 pixels
    Height : 400 pixels
    Display aspect ratio : 16:9
    Frame rate : 25.000 fps
    Color space : YUV
    Chroma subsampling : 4:2:0
    Bit depth : 8 bits
    Scan type : Progressive
    Compression mode : Lossy
    Bits/(Pixel*Frame) : 0.249
    Stream size : 682 MiB (93%)
    Writing library : XviD 64
    Audio #1
    ID : 1
    Format : MPEG Audio
    Format version : Version 1
    Format profile : Layer 3
    Mode : Joint stereo
    Mode extension : MS Stereo
    Codec ID : 55
    Codec ID/Hint : MP3
    Duration : 53mn 9s
    Bit rate mode : Constant
    Bit rate : 128 Kbps
    Channel(s) : 2 channels
    Sampling rate : 48.0 KHz
    Compression mode : Lossy
    Stream size : 48.7 MiB (7%)
    Alignment : Aligned on interleaves
    Interleave, duration : 40 ms (1.00 video frame)
    Interleave, preload duration : 504 ms


    Скриншоты:

    Трейлеры к фильмам [2014]

    © Оформление by Vetal
    pb.wtf



  • Скачать Земляк через торрент http://pic.kartinco.top/images/6/ordi9.jpg Скачать фильм Земляк через торрент бесплантно в хорошем качестве Описание:Если ты прав, это еще не значит, что справедливость будет на твоей стороне. Такую горькую истину на собственном опыте пришлось ... 9.8 10 28
    Info! Золотая раздача, скачанное не засчитывается.
    Торрент: Зарегистрирован [2014-01-19 09:38] · скачан: 884 раз
    Статус: √ проверено
    Размер: 4.01 GB
    Как cкачать? Как скачать Земляк через торрент | qTorrent

    28-11-2019 20:33  

    Отключить всю рекламу на сайте

      Дорогой пользователь! Огромная просьба, поблагодарите релизера, оцените раздачу и оставьте свои комментарий, если Вы скачали Земляк через торрент бесплатно! Внесите свою лепту в развитие PiratBit!
      Комментировать посты могут только пользователи прошедшие не сложную регистрацию
      Показать сообщения:    

      Земляк через торрент
      Скачать бесплатно Земляк
      Земляк скачать торрент
      Земляк смотреть онлайн
      Cкачать фильм Земляк бесплатно
      Земляк скачать торрент в хорошем качестве
      Земляк смотреть онлайн бесплатно в хорошем качестве


      Вы не можете начинать темы
      Вы не можете отвечать на сообщения
      Вы не можете редактировать свои сообщения
      Вы не можете удалять свои сообщения
      Вы не можете голосовать в опросах
      Вы не можете прикреплять файлы к сообщениям
      Вы можете скачивать файлы