Ссылка на приватное зеркало нашего сайта всего за 1$. Внимание количество ограничено!!!

2 сезон

iTunes

1 сезон

1

iTunes

iTunes

iTunes

1 сезон

RePack

30

ИГРА 18+

pack

ВАЖНО

!!Акция!!

Alien_RageХит недели

RePack

MK11
pack

Забери бонус

RePack

jed

!!Акция!!

Alien_Rage

RePack

fifa19

RePack

Assassins Creed: Odyssey

RePack

NEED FOR SPEED™ PAYBACK

4 сезон

9 сезон

Бесстыжие 9 сезон

Все сериалы

все сериалы на PB.wtf

RePack

FAR CRY 5
  

Ты заплатишь за все / Серии: 1-4 из 4 (Дмитрий Сорокин) [2013, Мелодрама, SATRip] pb.wtf

Ты заплатишь за все через торрент pb.wtf

Размер: 2 GB | Добавлен: 6 лет 9 мес. назад | Торрент скачан:299 раз
Скачать  

19-01-2014 09:47 Ты заплатишь за все Скачать торрент  


Ты заплатишь за всё


  • Год выпуска:2013
  • Страна:Россия
  • Жанр:мелодрама
  • Продолжительность:01:34:00,01:20:00
  • Перевод:Не требуется

  • Субтитры: Нет
    • Режиссер:Дмитрий Сорокин
    • Сценарий: Юлия Климок

  • В ролях:Ангелина Добророднова (Лиза), Яна Шивкова (Наталья)

    • Описание:
      Дом Анны всегда был полной чашей: заботливый и обеспеченный муж, послушные дети. Одна беда - серьёзно больна сестра. После курса лечения девушка должна была пойти на поправку, но она внезапно умерла как раз из-за того препарата, с которым связывали надежду на выздоровление. Анна решает наказать виновных в гибели сестры и обращается в суд. «Фармацевт-убийца» арестован и умирает в тюрьме. Его жена, Наталья, теряет долгожданного первенца. С этого момента она решает отомстить тем, кто виноват в смерти ее мужа и ребенка. Как это решение отразиться на семье Анны? И чем обернётся для самой мстительницы?


    • Качество:SATRip
    • Формат:AVI
    • Видео кодек: XviD
    • Аудио кодек:MP3
    • Видео: XviD, 720x416 (16:9), 1494 kbps, 25 fps, 0,200 bpp
    • Аудио: MP3 / 2.0 / 48 kHz / 128 kbps /


    Код:

    General
    Complete name                            : D:ТорентыТы заплатишь за все SATRip  заплатишь за все 01_02_серия_SATRip_.avi
    Format                                   : AVI
    Format/Info                              : Audio Video Interleave
    File size                                : 1.08 GiB
    Duration                                 : 1h 34mn
    Overall bit rate                         : 1 633 Kbps
    Writing application                      : VirtualDubMod 1.5.10.2 (build 2540/release)
    Writing library                          : VirtualDub build 32507/release

    Video
    ID                                       : 0
    Format                                   : MPEG-4 Visual
    Format profile                           : Advanced Simple@L5
    Format settings, BVOP                    : 2
    Format settings, QPel                    : No
    Format settings, GMC                     : No warppoints
    Format settings, Matrix                  : Default (MPEG)
    Codec ID                                 : XVID
    Codec ID/Hint                            : XviD
    Duration                                 : 1h 34mn
    Bit rate                                 : 1 495 Kbps
    Width                                    : 720 pixels
    Height                                   : 416 pixels
    Display aspect ratio                     : 16:9
    Frame rate                               : 25.000 fps
    Color space                              : YUV
    Chroma subsampling                       : 4:2:0
    Bit depth                                : 8 bits
    Scan type                                : Progressive
    Compression mode                         : Lossy
    Bits/(Pixel*Frame)                       : 0.200
    Stream size                              : 1 012 MiB (92%)
    Writing library                          : XviD 64

    Audio
    ID                                       : 1
    Format                                   : MPEG Audio
    Format version                           : Version 1
    Format profile                           : Layer 3
    Mode                                     : Joint stereo
    Codec ID                                 : 55
    Codec ID/Hint                            : MP3
    Duration                                 : 1h 34mn
    Bit rate mode                            : Constant
    Bit rate                                 : 128 Kbps
    Channel(s)                               : 2 channels
    Sampling rate                            : 48.0 KHz
    Compression mode                         : Lossy
    Stream size                              : 86.6 MiB (8%)
    Alignment                                : Aligned on interleaves
    Interleave, duration                     : 40 ms (1.00 video frame)
    Interleave, preload duration             : 504 ms


    Скриншоты:

    Трейлеры к фильмам [2014]

    © Оформление by Vetal
    pb.wtf



  • Скачать Ты заплатишь за все через торрент http://pic.kartinco.top/images/6/ordi9.jpg Скачать фильм Ты заплатишь за все через торрент бесплантно в хорошем качестве Описание:Дом Анны всегда был полной чашей: заботливый и обеспеченный муж, послушные дети. Одна беда - серьёзно больна сестра. После курса ... 9.5 10 12
    Info! Золотая раздача, скачанное не засчитывается.
    Торрент: Зарегистрирован [2014-01-19 09:47] · скачан: 299 раз
    Статус: √ проверено
    Размер: 2 GB
    Как cкачать? Как скачать Ты заплатишь за все через торрент | qTorrent

    28-11-2019 20:33  

    Отключить всю рекламу на сайте

      Дорогой пользователь! Огромная просьба, поблагодарите релизера, оцените раздачу и оставьте свои комментарий, если Вы скачали Ты заплатишь за все через торрент бесплатно! Внесите свою лепту в развитие PiratBit!
      Комментировать посты могут только пользователи прошедшие не сложную регистрацию
      Показать сообщения:    

      Ты заплатишь за все через торрент
      Скачать бесплатно Ты заплатишь за все
      Ты заплатишь за все скачать торрент
      Ты заплатишь за все смотреть онлайн
      Cкачать фильм Ты заплатишь за все бесплатно
      Ты заплатишь за все скачать торрент в хорошем качестве
      Ты заплатишь за все смотреть онлайн бесплатно в хорошем качестве


      Вы не можете начинать темы
      Вы не можете отвечать на сообщения
      Вы не можете редактировать свои сообщения
      Вы не можете удалять свои сообщения
      Вы не можете голосовать в опросах
      Вы не можете прикреплять файлы к сообщениям
      Вы можете скачивать файлы