Ссылка на приватное зеркало нашего сайта всего за 1$. Внимание количество ограничено!!!

2 сезон

iTunes

1 сезон

1

iTunes

iTunes

iTunes

1 сезон

RePack

30

ИГРА 18+

pack

ВАЖНО

!!Акция!!

Alien_RageХит недели

RePack

MK11
pack

Забери бонус

RePack

jed

!!Акция!!

Alien_Rage

RePack

fifa19

RePack

Assassins Creed: Odyssey

RePack

NEED FOR SPEED™ PAYBACK

4 сезон

9 сезон

Бесстыжие 9 сезон

Все сериалы

все сериалы на PB.wtf

RePack

FAR CRY 5
  

Оттепель / Серии: 1-12 из 12 (Валерий Тодоровский) [2013, Драма, HDTVRip] pb.wtf

Оттепель через торрент pb.wtf

Размер: 6.52 GB | Добавлен: 6 лет 9 мес. назад | Торрент скачан:694 раза
Скачать  

19-01-2014 09:58 Оттепель Скачать торрент  


Оттепель


  • Год выпуска:2013
  • Страна:Россия
  • Жанр:драма
  • Продолжительность:12х 00:52:00
  • Перевод:Не требуется

  • Субтитры: Нет
    • Режиссер:Валерий Тодоровский
    • Сценарий: Валерий Тодоровский, Алена Званцова, Дмитрий Константинов
    • Продюсер: Валерий Тодоровский

  • В ролях:Евгений Цыганов, Александр Яценко, Анна Чиповская, Виктория Исакова, Михаил Ефремов, Светлана Колпакова (Надя Кривицкая, жена Фёдора), Яна Сексте, Нина Дворжецкая, Павел Деревянко, Евгений Волоцкий (Санча, брат Марьяны), Василий Мищенко (Алексей Петрович Цанин), Андрей Смирнов

    • Описание:
      Студия «Мосфильм», 1961 год. Виктор Хрусталев - молодой, талантливый оператор. Однажды он выпивал со своим другом-сценаристом Костиком в общаге ВГИКА. И нужно же было такому случиться, Костя выпал из окна и погиб. После его смерти он обнаруживает сценарий, который не был в свое время утвержден, и понимает, что это совершенно чумовая вещь. Он мечтает снять по этому сценарию фильм.
      На похоронах он встречается с режиссером Егором Мячиным. И вскоре им подвернулась возможность вместе поучаствовать на съемках картины под названием «Девушка и бригадир». Присутствует в картине и любовная интрига. Виктор и Егор поочередно встречаются со студенткой химфака МГУ Марьяной, которая попадает на их же картину в качестве главной актрисы. Чтобы показать колорит тех времен, в завершении каждой серии звучат стихи и песни той эпохи.


    • Качество:HDTVRip
    • Формат:AVI
    • Видео кодек: XviD
    • Аудио кодек:MP3
    • Видео: XviD, 720x400 (16:9), 1058 kbps, 25 fps, 0,147 bpp
    • Аудио: MP3 / 2.0 / 48 kHz / 128 kbps /


    Код:

    General
    Complete name                            : D:ТорентыОттепель_HDTVRip_by_Дрек_R.G СериалыОттепель_01_HDTVRip_by_Дрек_R.G Сериалы.avi
    Format                                   : AVI
    Format/Info                              : Audio Video Interleave
    File size                                : 557 MiB
    Duration                                 : 1h 5mn
    Overall bit rate                         : 1 196 Kbps
    Writing application                      : VirtualDubModRus 1.5.10.2 (build 2542/release)
    Writing library                          : VirtualDubMod build 2542/release

    Video
    ID                                       : 0
    Format                                   : MPEG-4 Visual
    Format profile                           : Advanced Simple@L5
    Format settings, BVOP                    : 2
    Format settings, QPel                    : No
    Format settings, GMC                     : No warppoints
    Format settings, Matrix                  : Default (H.263)
    Muxing mode                              : Packed bitstream
    Codec ID                                 : XVID
    Codec ID/Hint                            : XviD
    Duration                                 : 1h 5mn
    Bit rate                                 : 1 058 Kbps
    Width                                    : 720 pixels
    Height                                   : 400 pixels
    Display aspect ratio                     : 16:9
    Frame rate                               : 25.000 fps
    Color space                              : YUV
    Chroma subsampling                       : 4:2:0
    Bit depth                                : 8 bits
    Scan type                                : Progressive
    Compression mode                         : Lossy
    Bits/(Pixel*Frame)                       : 0.147
    Stream size                              : 493 MiB (88%)
    Writing library                          : XviD 64

    Audio
    ID                                       : 1
    Format                                   : MPEG Audio
    Format version                           : Version 1
    Format profile                           : Layer 3
    Mode                                     : Joint stereo
    Mode extension                           : MS Stereo
    Codec ID                                 : 55
    Codec ID/Hint                            : MP3
    Duration                                 : 1h 5mn
    Bit rate mode                            : Constant
    Bit rate                                 : 128 Kbps
    Channel(s)                               : 2 channels
    Sampling rate                            : 48.0 KHz
    Compression mode                         : Lossy
    Stream size                              : 59.7 MiB (11%)
    Alignment                                : Aligned on interleaves
    Interleave, duration                     : 40 ms (1.00 video frame)
    Interleave, preload duration             : 504 ms
    Writing library                          : LAME3.99
    Encoding settings                        : -m j -V 4 -q 2 -lowpass 17 -b 128


    Скриншоты:

    Трейлеры к фильмам [2014]

    © Оформление by Vetal
    pb.wtf



  • Скачать Оттепель через торрент http://pic.kartinco.top/images/6/ordi9.jpg Скачать фильм Оттепель через торрент бесплантно в хорошем качестве Описание:Студия «Мосфильм», 1961 год. Виктор Хрусталев - молодой, талантливый оператор. Однажды он выпивал со своим другом-сценаристом ... 9.8 10 23
    Info! Золотая раздача, скачанное не засчитывается.
    Торрент: Зарегистрирован [2014-01-19 09:58] · скачан: 694 раз
    Статус: √ проверено
    Размер: 6.52 GB
    Как cкачать? Как скачать Оттепель через торрент | qTorrent

    28-11-2019 20:33  

    Отключить всю рекламу на сайте

    09-01-2017 06:37 Оттепель Скачать торрент  

    фильм отличный......но сюжет мог ..............Цыганов хорошо инрает свою роль......парень что надо..pb.wtf



      Дорогой пользователь! Огромная просьба, поблагодарите релизера, оцените раздачу и оставьте свои комментарий, если Вы скачали Оттепель через торрент бесплатно! Внесите свою лепту в развитие PiratBit!
      Комментировать посты могут только пользователи прошедшие не сложную регистрацию
      Показать сообщения:    

      Оттепель через торрент
      Скачать бесплатно Оттепель
      Оттепель скачать торрент
      Оттепель смотреть онлайн
      Cкачать фильм Оттепель бесплатно
      Оттепель скачать торрент в хорошем качестве
      Оттепель смотреть онлайн бесплатно в хорошем качестве


      Вы не можете начинать темы
      Вы не можете отвечать на сообщения
      Вы не можете редактировать свои сообщения
      Вы не можете удалять свои сообщения
      Вы не можете голосовать в опросах
      Вы не можете прикреплять файлы к сообщениям
      Вы можете скачивать файлы