Ссылка на приватное зеркало нашего сайта всего за 1$. Внимание количество ограничено!!!

2 сезон

iTunes

1 сезон

1

iTunes

iTunes

iTunes

1 сезон

RePack

30

ИГРА 18+

pack

ВАЖНО

!!Акция!!

Alien_RageХит недели

RePack

MK11
pack

Забери бонус

RePack

jed

!!Акция!!

Alien_Rage

RePack

fifa19

RePack

Assassins Creed: Odyssey

RePack

NEED FOR SPEED™ PAYBACK

4 сезон

9 сезон

Бесстыжие 9 сезон

Все сериалы

все сериалы на PB.wtf

RePack

FAR CRY 5
  

Брак по завещанию-3. Танцы на углях / Серии: 1-9 из 9 (Николай Борц) [2013, Мелодрама, приключения, HDTVRip] pb.wtf

Брак по завещанию-3. Танцы на углях через торрент pb.wtf

Размер: 5.27 GB | Добавлен: 6 лет 9 мес. назад | Торрент скачан:296 раз
Скачать  

19-01-2014 10:03 Брак по завещанию-3. Танцы на углях Скачать торрент  


Брак по завещанию 3. Танцы на углях


  • Год выпуска:2013
  • Страна:Россия
  • Жанр:мелодрама, приключения
  • Продолжительность:9х00:48:25
  • Перевод:Не требуется

  • Субтитры: Нет
    • Режиссер:Николай Борц
    • Сценарий: Ольга Гурова
    • Продюсер: Ольга Манеева

  • В ролях:Татьяна Арнтгольц (Сандра), Анатолий Белый (Илья Ковалев), Андрей Финягин (Джеймс Харпер), Галина Петрова (Ядвига), Денис Яковлев (Пашка), Алика Котова (Кора), Давид Бродский (Асад Наврулла), Тимур Бадалбейли (Ясин), Павел Делонг (Костя Суворин), Нелли Пшенная (Лиз Харпер), Дмитрий Титов (Сергей Петрович), Эдуард Флёров (Алекс Маклейн)

    • Описание:
      Проходит год. Сандра расстается с Константином Сувориным. Узнав об этом, Джеймс Харпер начинает предпринимать попытки вернуть бывшую жену. Он делает ей заманчивое предложение - возглавить российский филиал Корпорации.
      Вскоре в жизни Сандры появляется новый мужчина - геологоразведчик Илья Ковалев, который начинает за ней ухаживать. Но из-за досадного недоразумения Сандра отталкивает его от себя, и всё свое время посвящает подготовке к предстоящему тендеру в Наронге. Она не подозревает, что эта поездка круто изменит ее жизнь...


    • Качество:HDTVRip
    • Формат:AVI
    • Видео кодек: XviD
    • Аудио кодек:AC3
    • Видео: XviD, 720x400 (16:9), 1530 kbps, 25 fps, 0,213 bpp
    • Аудио: AC3 / 2.0 / 48 kHz / 192 kbps / 16 bit


    Код:

    General
    Complete name                            : D:ТорентыBrak.po.zaveschaniyu.-3.2013.HDTVRip.RG.Russkie.serialy.&.Files-xBrak.po.zaveschaniyu.-3.(1.seriya.iz.9).2013.HDTVRip.RG.Russkie.serialy.&.Files-x.avi
    Format                                   : AVI
    Format/Info                              : Audio Video Interleave
    File size                                : 600 MiB
    Duration                                 : 48mn 25s
    Overall bit rate                         : 1 733 Kbps
    Writing application                      : VirtualDubMod 1.5.10.3 | www.virtualdub-fr.org || (build 2550/release)
    Writing library                          : VirtualDubMod build 2550/release

    Video
    ID                                       : 0
    Format                                   : MPEG-4 Visual
    Format profile                           : Advanced Simple@L5
    Format settings, BVOP                    : 1
    Format settings, QPel                    : No
    Format settings, GMC                     : No warppoints
    Format settings, Matrix                  : Default (H.263)
    Codec ID                                 : XVID
    Codec ID/Hint                            : XviD
    Duration                                 : 48mn 25s
    Bit rate                                 : 1 531 Kbps
    Width                                    : 720 pixels
    Height                                   : 400 pixels
    Display aspect ratio                     : 16:9
    Frame rate                               : 25.000 fps
    Color space                              : YUV
    Chroma subsampling                       : 4:2:0
    Bit depth                                : 8 bits
    Scan type                                : Progressive
    Compression mode                         : Lossy
    Bits/(Pixel*Frame)                       : 0.213
    Stream size                              : 530 MiB (88%)
    Writing library                          : XviD 1.2.1 (UTC 2008-12-04)

    Audio
    ID                                       : 1
    Format                                   : AC-3
    Format/Info                              : Audio Coding 3
    Mode extension                           : CM (complete main)
    Codec ID                                 : 2000
    Duration                                 : 48mn 25s
    Bit rate mode                            : Constant
    Bit rate                                 : 192 Kbps
    Channel(s)                               : 2 channels
    Channel positions                        : Front: L R
    Sampling rate                            : 48.0 KHz
    Bit depth                                : 16 bits
    Compression mode                         : Lossy
    Stream size                              : 66.5 MiB (11%)
    Alignment                                : Split accross interleaves
    Interleave, duration                     : 40 ms (1.00 video frame)
    Interleave, preload duration             : 500 ms


    Скриншоты:

    Трейлеры к фильмам [2014]

    © Оформление by Vetal
    pb.wtf



  • Скачать Брак по завещанию-3. Танцы на углях через торрент http://pic.kartinco.top/images/6/ordi9.jpg Скачать фильм Брак по завещанию-3. Танцы на углях через торрент бесплантно в хорошем качестве Описание:Проходит год. Сандра расстается с Константином Сувориным. Узнав об этом, Джеймс Харпер начинает предпринимать попытки вернуть ... 10 10 9
    Info! Золотая раздача, скачанное не засчитывается.
    Торрент: Зарегистрирован [2014-01-19 10:03] · скачан: 296 раз
    Статус: √ проверено
    Размер: 5.27 GB
    Как cкачать? Как скачать Брак по завещанию-3. Танцы на углях через торрент | qTorrent

    28-11-2019 20:33  

    Отключить всю рекламу на сайте

      Дорогой пользователь! Огромная просьба, поблагодарите релизера, оцените раздачу и оставьте свои комментарий, если Вы скачали Брак по завещанию-3. Танцы на углях через торрент бесплатно! Внесите свою лепту в развитие PiratBit!
      Комментировать посты могут только пользователи прошедшие не сложную регистрацию
      Показать сообщения:    

      Брак по завещанию-3. Танцы на углях через торрент
      Скачать бесплатно Брак по завещанию-3. Танцы на углях
      Брак по завещанию-3. Танцы на углях скачать торрент
      Брак по завещанию-3. Танцы на углях смотреть онлайн
      Cкачать фильм Брак по завещанию-3. Танцы на углях бесплатно
      Брак по завещанию-3. Танцы на углях скачать торрент в хорошем качестве
      Брак по завещанию-3. Танцы на углях смотреть онлайн бесплатно в хорошем качестве


      Вы не можете начинать темы
      Вы не можете отвечать на сообщения
      Вы не можете редактировать свои сообщения
      Вы не можете удалять свои сообщения
      Вы не можете голосовать в опросах
      Вы не можете прикреплять файлы к сообщениям
      Вы можете скачивать файлы