Ссылка на приватное зеркало нашего сайта всего за 1$. Внимание количество ограничено!!!

2 сезон

iTunes

1 сезон

1

iTunes

iTunes

iTunes

1 сезон

RePack

30

ИГРА 18+

pack

ВАЖНО

!!Акция!!

Alien_RageХит недели

RePack

MK11
pack

Забери бонус

RePack

jed

!!Акция!!

Alien_Rage

RePack

fifa19

RePack

Assassins Creed: Odyssey

RePack

NEED FOR SPEED™ PAYBACK

4 сезон

9 сезон

Бесстыжие 9 сезон

Все сериалы

все сериалы на PB.wtf

RePack

FAR CRY 5
  

Паутина-7 / Сезон: 7 / Фильм 1-6 из 6, Серии: 1-24 из 24 (Михаил Галин, Степан Коршунов) [2013, детектив, SATRip] pb.wtf

Паутина-7 через торрент pb.wtf

Размер: 12.85 GB | Добавлен: 6 лет 9 мес. назад | Торрент скачан:189 раз
Скачать  

19-01-2014 10:10 Паутина-7 Скачать торрент  


Паутина-7


  • Год выпуска:2013
  • Страна:Россия
  • Жанр:детектив
  • Продолжительность:00:46:20
  • Перевод:Не требуется

  • Субтитры: Нет
    • Режиссер:Владимир Краснопольский, Валерий Усков, Михаил Мамедов
    • Сценарий: Светлана Нестерова, Владислав Романов
    • Продюсер: Андрей Каморин, Юрий Мацюк, Наталья Парамонова

  • В ролях:Олег Харитонов (Федор Туманов), Олег Шкловский, Олег Филипчик (Греков, оперуполномоченный), Виктор Запорожский (Липков), Константин Соловьев (Виктор Сафонов), Наталья Юнникова (Катя Туманова), Юлия Пересильд, Олег Каменщиков (Нельсон), Алексей Гришин, Сергей Легостаев, Владимир Никитин, Татьяна Борисова

    • Описание:
      Главный герой, начальник убойного отдела, Федор Туманов - опер добросовестный и бывалый. Находясь на страже закона, ему все время приходится «ходить по лезвию бритвы»: его то «подставляют» свои, то за ним охотятся чужие. Но на сей раз «паутина» его затянула очень серьезно.
      Туманов и раньше был костью в горле у авторитетов бандитского мира. Но, заимев компрометирующую информацию на империю старого вора Мономаха, он обретает в его лице очень опасного врага. Каждый отчаянно борется за свое дело и за свои интересы. Миром им не разойтись...

    Доп.информация
    Фильм 1: Белый шиповник
    Фильм 2: В Плену Заблуждений
    Фильм 3: Совпадений не Бывает
    Фильм 4: Алмазная Пыль
    Фильм 5: Пятый Океан
    Фильм 6: Фармацевт
    • Качество:SATRip
    • Формат:AVI
    • Видео кодек: XviD
    • Аудио кодек:MP3
    • Видео: XviD, 704x368 (1.913), 1570 kbps, 25 fps, 0,243 bpp
    • Аудио: MP3 / 2.0 / 48 kHz / 192 kbps /


    Код:

    General
    Complete name                            : D:ТорентыПаутина-7 (2013)Паутина-7.(01.seriya).2013.XviD.SATRip.by.simka.avi
    Format                                   : AVI
    Format/Info                              : Audio Video Interleave
    File size                                : 588 MiB
    Duration                                 : 46mn 20s
    Overall bit rate                         : 1 773 Kbps
    Writing application                      : VirtualDubModRus 1.5.10.2 (build 2542/release)
    Writing library                          : VirtualDubMod build 2542/release

    Video
    ID                                       : 0
    Format                                   : MPEG-4 Visual
    Format profile                           : Advanced Simple@L5
    Format settings, BVOP                    : 1
    Format settings, QPel                    : No
    Format settings, GMC                     : No warppoints
    Format settings, Matrix                  : Default (H.263)
    Codec ID                                 : XVID
    Codec ID/Hint                            : XviD
    Duration                                 : 46mn 20s
    Bit rate                                 : 1 571 Kbps
    Width                                    : 704 pixels
    Height                                   : 368 pixels
    Display aspect ratio                     : 1.913
    Frame rate                               : 25.000 fps
    Color space                              : YUV
    Chroma subsampling                       : 4:2:0
    Bit depth                                : 8 bits
    Scan type                                : Progressive
    Compression mode                         : Lossy
    Bits/(Pixel*Frame)                       : 0.243
    Stream size                              : 521 MiB (89%)
    Writing library                          : XviD 1.2.1 (UTC 2008-12-04)

    Audio
    ID                                       : 1
    Format                                   : MPEG Audio
    Format version                           : Version 1
    Format profile                           : Layer 3
    Mode                                     : Joint stereo
    Mode extension                           : MS Stereo
    Codec ID                                 : 55
    Codec ID/Hint                            : MP3
    Duration                                 : 46mn 20s
    Bit rate mode                            : Constant
    Bit rate                                 : 192 Kbps
    Channel(s)                               : 2 channels
    Sampling rate                            : 48.0 KHz
    Compression mode                         : Lossy
    Stream size                              : 63.7 MiB (11%)
    Alignment                                : Aligned on interleaves
    Interleave, duration                     : 40 ms (1.00 video frame)
    Interleave, preload duration             : 504 ms
    Writing library                          : LAME3.99r
    Encoding settings                        : -m j -V 4 -q 2 -lowpass 18.6 -b 192


    Скриншоты:

    Трейлеры к фильмам [2014]

    © Оформление by Vetal
    pb.wtf



  • Скачать Паутина-7 через торрент http://pic.kartinco.top/images/6/ordi9.jpg Скачать фильм Паутина-7 через торрент бесплантно в хорошем качестве Описание:Главный герой, начальник убойного отдела, Федор Туманов - опер добросовестный и бывалый. Находясь на страже закона, ему все время ... 9.8 10 12
    Info! Золотая раздача, скачанное не засчитывается.
    Торрент: Зарегистрирован [2014-01-19 10:10] · скачан: 189 раз
    Статус: √ проверено
    Размер: 12.85 GB
    Как cкачать? Как скачать Паутина-7 через торрент | qTorrent

    28-11-2019 20:33  

    Отключить всю рекламу на сайте

    19-01-2014 11:31 Паутина-7 Скачать торрент  

    паутина 7? впервые слышу :rofle: ну и ладно, такое смотреть - себя не уважатьpb.wtf



    22-01-2014 05:14 Паутина-7 Скачать торрент  

    FabRyo
    Уважь себя-не смотри! )pb.wtf



    04-04-2014 18:33 Паутина-7 Скачать торрент  

    Скучный и нудный сериал первые были лучше.. :snooze:pb.wtf



      Дорогой пользователь! Огромная просьба, поблагодарите релизера, оцените раздачу и оставьте свои комментарий, если Вы скачали Паутина-7 через торрент бесплатно! Внесите свою лепту в развитие PiratBit!
      Комментировать посты могут только пользователи прошедшие не сложную регистрацию
      Показать сообщения:    

      Паутина-7 через торрент
      Скачать бесплатно Паутина-7
      Паутина-7 скачать торрент
      Паутина-7 смотреть онлайн
      Cкачать фильм Паутина-7 бесплатно
      Паутина-7 скачать торрент в хорошем качестве
      Паутина-7 смотреть онлайн бесплатно в хорошем качестве


      Вы не можете начинать темы
      Вы не можете отвечать на сообщения
      Вы не можете редактировать свои сообщения
      Вы не можете удалять свои сообщения
      Вы не можете голосовать в опросах
      Вы не можете прикреплять файлы к сообщениям
      Вы можете скачивать файлы